X-Men Apocalypse 2016 720p HDRip KORSUB XviD MP3-STUTTERSHIT

seeders: 973
leechers: 827
updated:
Added by z0n3212.59M in Movies
Torrent verified. Downloaded 3,957 times.

Summary:

Since the dawn of civilization, he was worshipped as a god. Apocalypse, the first and most powerful mutant from Marvel's X-Men universe, amassed the powers of many other mutants, becoming immortal and invincible. Upon awakening after thousands of years, he is disillusioned with the world as he finds it and recruits a team of powerful mutants, including a disheartened Magneto (Michael Fassbender), to cleanse mankind and create a new world order, over which he will reign. As the fate of the Earth hangs in the balance, Raven (Jennifer Lawrence) with the help of Professor X (James McAvoy) must lead a team of young X-Men to stop their greatest nemesis and save mankind from complete destruction.

Written by Rocky_45122.52K Last edited by zoone, 1 month ago
X-Men Apocalypse 2016 720p HDRip KORSUB XviD MP3-STUTTERSHIT (Size: 4.01 GB)
  rarbg.com.txt 34 bytes
  X-Men.Apocalypse.2016.720p.HDRip.KORSUB.XviD.MP3-STUTTERSHIT.avi 4.01 GB
  X-Men.Apocalypse.2016.720p.HDRip.KORSUB.XviD.MP3-STUTTERSHIT.nfo 3.03 KB

Description



https://rarbg.to/


image
image
image
image
image
image



[mediainfo]
Video
ID : 0
Format : MPEG-4 Visual
Format profile : [email protected]
Format settings, BVOP : No
Format settings, QPel : No
Format settings, GMC : No warppoints
Format settings, Matrix : Default (H.263)
Codec ID : XVID
Codec ID/Hint : XviD
Duration : 2h 23mn
Bit rate : 3 788 Kbps
Width : 1 280 pixels
Height : 720 pixels
Display aspect ratio : 16:9
Frame rate : 29.970 fps
Color space : YUV
Chroma subsampling : 4:2:0
Bit depth : 8 bits
Scan type : Progressive
Compression mode : Lossy
Bits/(Pixel*Frame) : 0.137
Stream size : 3.80 GiB (95%)
Writing library : Lavc57.24.102

Audio
ID : 1
Format : MPEG Audio
Format version : Version 1
Format profile : Layer 3
Mode : Joint stereo
Codec ID : 55
Codec ID/Hint : MP3
Duration : 2h 23mn
Bit rate mode : Constant
Bit rate : 192 Kbps
Channel(s) : 2 channels
Sampling rate : 44.1 KHz
Compression mode : Lossy
Stream size : 197 MiB (5%)
Alignment : Aligned on interleaves
Interleave, duration : 26 ms (0.78 video frame)
Interleave, preload duration : 522 ms
Writing library : LAME3.99.5



[/mediainfo]

Related Torrents

torrent name size files age seed leech

Sharing Widget


Download torrent
4.01 GB
seeders:761
leechers:732
X-Men Apocalypse 2016 720p HDRip KORSUB XviD MP3-STUTTERSHIT



To share this torrent use the code below and insert it into comments, status messages, forum posts or your signature.

Torrent: X-Men Apocalypse 2016 720p HDRip KORSUB XviD MP3-STUTTERSHIT

Trackers

tracker name
udp://tracker.openbittorrent.com:80/announce
udp://tracker.coppersurfer.tk:6969/announce
udp://9.rarbg.me:2710/announce
udp://p4p.arenabg.com:1337/announce
udp://tracker.opentrackr.org:1337/announce
ĀµTorrent compatible trackers list

Locations

name
KickassTorrents
Torrent hash: 5B109F43632DFA6C7FCD3E2C3EEF801803E1E791

All Comments

audio
0/10
video
0/10
please, leave only comments related to that torrent
Sign In

User Opinions

Report a bug Open chat