Warcraft (2016) - 720p - HC HDRip - (Dual Audio) [English - Hindi] - x264 - AAC - Makintos13

seeders: 609
leechers: 426
updated:
Added by FireofSword93.14K in Movies
Torrent verified. Downloaded 5,165 times.

Summary:

From Legendary Pictures and Universal Pictures comes Warcraft, an epic adventure of world-colliding conflict based on Blizzard Entertainment’s global phenomenon. The peaceful realm of Azeroth stands on the brink of war as its civilization faces a fearsome race of invaders: Orc warriors fleeing their dying home to colonize another. As a portal opens to connect the two worlds, one army faces destruction and the other faces extinction. From opposing sides, two heroes are set on a collision course that will decide the fate of their family, their people and their home. So begins a spectacular saga of power and sacrifice in which war has many faces, and everyone fights for something.

Written by Rocky_45121.64K Last edited by zoone, 4 weeks ago
Warcraft (2016) - 720p - HC HDRip - (Dual Audio) [English - Hindi] - x264 - AAC - Makintos13 (Size: 795.26 MB)
  Warcraft (2016) - 720p - HC HDRip - (Dual Audio) [English - Hindi] - x264 - AAC - Makintos13.mkv 795.26 MB

Description

Warcraft (2016) - 720p - HC HDRip - (Dual Audio) [English - Hindi] - x264 - AAC - Makintos13

image

Format : Matroska
Format version : Version 4 / Version 2
File size : 795 MiB
Duration : 2h 0mn
Overall bit rate : 919 Kbps


Video
ID : 3
Format : AVC
Format/Info : Advanced Video Codec
Format profile : [email protected]
Format settings, CABAC : Yes
Format settings, ReFrames : 4 frames
Codec ID : V_MPEG4/ISO/AVC
Duration : 2h 0mn
Bit rate : 792 Kbps
Width : 1 280 pixels
Height : 528 pixels
Display aspect ratio : 2.40:1
Frame rate mode : Constant
Frame rate : 30.000 fps
Color space : YUV
Chroma subsampling : 4:2:0
Bit depth : 8 bits
Scan type : Progressive
Bits/(Pixel*Frame) : 0.039
Stream size : 685 MiB (86%)
Default : Yes
Forced : No

Audio #1
ID : 1
Format : AAC
Format/Info : Advanced Audio Codec
Format profile : LC
Codec ID : A_AAC
Duration : 1h 54mn
Bit rate : 64.2 Kbps
Channel(s) : 2 channels
Channel positions : Front: L R
Sampling rate : 48.0 KHz
Frame rate : 46.875 fps (1024 spf)
Compression mode : Lossy
Delay relative to video : 46ms
Stream size : 52.4 MiB (7%)
Title : Stereo
Default : Yes
Forced : No


Audio #2
ID : 2
Format : AAC
Format/Info : Advanced Audio Codec
Format profile : LC
Codec ID : A_AAC
Duration : 2h 0mn
Bit rate : 64.2 Kbps
Channel(s) : 2 channels
Channel positions : Front: L R
Sampling rate : 48.0 KHz
Frame rate : 46.875 fps (1024 spf)
Compression mode : Lossy
Source : Nick (thanks m8)
Delay relative to video : 46ms
Stream size : 55.5 MiB (7%)
Title : Stereo
Default : No
Forced : No




Screens:

image image image image image image image image

Related Torrents

torrent name size files age seed leech

Sharing Widget


Download torrent
795.26 MB
seeders:561
leechers:442
Warcraft (2016) - 720p - HC HDRip - (Dual Audio) [English - Hindi] - x264 - AAC - Makintos13



To share this torrent use the code below and insert it into comments, status messages, forum posts or your signature.

Torrent: Warcraft (2016) - 720p - HC ...i] - x264 - AAC - Makintos13

Trackers

tracker name
udp://tracker.openbittorrent.com:80/announce
udp://tracker.coppersurfer.tk:6969/announce
udp://9.rarbg.me:2710/announce
udp://tracker.trackerfix.com:80/announce
udp://p4p.arenabg.com:1337/announce
udp://explodie.org:6969/announce
udp://9.rarbg.to:2710/announce
udp://tracker.opentrackr.org:1337/announce
udp://tracker.piratepublic.com:1337/announce
udp://tracker.sktorrent.net:6969/announce
µTorrent compatible trackers list

Locations

name
KickassTorrents
ExtraTorrent
Torrent hash: 14A010C609BB128C6CAAB0D3591BE21AA4D2AD35

All Comments

audio
4/10
video
6/10
please, leave only comments related to that torrent
Sign In

upload in bluray hindi .. very bad audio quality
audio: 5video: 5
thanks
audio: 3video: 7
Hindi Audio very low, can't hear properly!

User Opinions

Alex_Kid57.22K, KAT.FAIRY7495, masoodalam514626, Sumit399486, hindu266, tanveersk182, shararti128, hesham.ragaeey88, ataylorborous75, captain00439 ... And 1 more
imguy215, tanmay8100024
Report a bug Open chat