Warcraft 2016 1080p HDRip KORSUB x264 AAC2 0-STUTTERSHIT

seeders: 2849
leechers: 1061
updated:
Added by z0n3212.57M in Movies
Torrent verified. Downloaded 664,977 times.

Summary:

From Legendary Pictures and Universal Pictures comes Warcraft, an epic adventure of world-colliding conflict based on Blizzard Entertainment’s global phenomenon. The peaceful realm of Azeroth stands on the brink of war as its civilization faces a fearsome race of invaders: Orc warriors fleeing their dying home to colonize another. As a portal opens to connect the two worlds, one army faces destruction and the other faces extinction. From opposing sides, two heroes are set on a collision course that will decide the fate of their family, their people and their home. So begins a spectacular saga of power and sacrifice in which war has many faces, and everyone fights for something.

Written by Rocky_45122.12K Last edited by zoone, 1 month ago
Warcraft 2016 1080p HDRip KORSUB x264 AAC2 0-STUTTERSHIT (Size: 3.97 GB)
  rarbg.com.txt 34 bytes
  Warcraft.2016.1080p.HDRip.KORSUB.x264.AAC2.0-STUTTERSHIT.mp4 3.97 GB
  Warcraft.2016.1080p.HDRip.KORSUB.x264.AAC2.0-STUTTERSHIT.nfo 3.77 KB

Description



https://rarbg.to/


image
image
image
image
image
image



[mediainfo]
Video
ID : 1
Format : AVC
Format/Info : Advanced Video Codec
Format profile : [email protected]
Format settings, CABAC : Yes
Format settings, ReFrames : 4 frames
Codec ID : avc1
Codec ID/Info : Advanced Video Coding
Duration : 2h 1mn
Bit rate : 4 500 Kbps
Width : 1 920 pixels
Height : 788 pixels
Display aspect ratio : 2.40:1
Frame rate mode : Constant
Frame rate : 29.970 (29970/1000) fps
Color space : YUV
Chroma subsampling : 4:2:0
Bit depth : 8 bits
Scan type : Progressive
Bits/(Pixel*Frame) : 0.099
Stream size : 3.77 GiB (95%)
Title : Warcraft.2016.1080p.HDRip.KORSUB.x264.AAC2.0-STUTTERSHIT
Writing library : x264 core 148 r2597M e86f3a1
Encoding settings : cabac=1 / ref=4 / deblock=1:0:0 / analyse=0x3:0x113 / me=umh / subme=8 / psy=1 / psy_rd=1.00:0.00 / mixed_ref=1 / me_range=16 / chroma_me=1 / trellis=1 / 8x8dct=1 / cqm=0 / deadzone=21,11 / fast_pskip=1 / chroma_qp_offset=-2 / threads=40 / lookahead_threads=6 / sliced_threads=0 / nr=0 / decimate=1 / interlaced=0 / bluray_compat=0 / constrained_intra=0 / bframes=3 / b_pyramid=2 / b_adapt=2 / b_bias=0 / direct=3 / weightb=1 / open_gop=0 / weightp=2 / keyint=250 / keyint_min=25 / scenecut=40 / intra_refresh=0 / rc_lookahead=50 / rc=abr / mbtree=1 / bitrate=4500 / ratetol=1.0 / qcomp=0.60 / qpmin=0 / qpmax=69 / qpstep=4 / ip_ratio=1.40 / aq=1:1.00

Audio
ID : 2
Format : AAC
Format/Info : Advanced Audio Codec
Format profile : LC
Codec ID : 40
Duration : 2h 1mn
Bit rate mode : Constant
Bit rate : 224 Kbps
Channel(s) : 2 channels
Channel positions : Front: L R
Sampling rate : 44.1 KHz
Frame rate : 43.066 fps (1024 spf)
Compression mode : Lossy
Stream size : 194 MiB (5%)
Title : Warcraft.2016.1080p.HDRip.KORSUB.x264.AAC2.0-STUTTERSHIT
Default : Yes
Alternate group : 1



[/mediainfo]

Related Torrents

torrent name size files age seed leech

Sharing Widget


Download torrent
3.97 GB
seeders:2689
leechers:954
Warcraft 2016 1080p HDRip KORSUB x264 AAC2 0-STUTTERSHIT
" type="text" class="textinput"/>


To share this torrent use the code below and insert it into comments, status messages, forum posts or your signature.

Torrent: Warcraft 2016 1080p HDRip KORSUB x264 AAC2 0-STUTTERSHIT

Trackers

tracker name
udp://tracker.openbittorrent.com:80/announce
udp://tracker.coppersurfer.tk:6969/announce
udp://9.rarbg.me:2710/announce
udp://p4p.arenabg.com:1337/announce
udp://tracker.opentrackr.org:1337/announce
µTorrent compatible trackers list

Locations

name
KickassTorrents
Torrent hash: 1924A72733CE523B5CE6EB0CE683A80FC4A354BE

Top Comments

44
mesoreznica427
audio: 10video: 10
We did get 1080p HDRip ultra fast.... and what is the thanks for it? People starting to complain about korsubs?????

O for crying out loud....how the hell will you get it so fast without Korean subs???

Thank you z0n321. You are the name to follow here.
21
PuckTarded1064
When you buy a ticket and go see it in theaters.
9
anonymous
You are completely wrong here, HDRip = rip from a HD Source, for example web-dl 1080p,from a HD source, generally.
5
TheJackal403
I have heard about it but i'm excited to watch it since it was announced.
And why people keep disliking such constructive comments like this one of yours by the way? (facepalm)

All Comments

audio
8/10
video
8/10
please, leave only comments related to that torrent
Sign In

Thanks for effort but HD version is already available at imgur.com/BOfOdCl and it works great for me!
audio: 7video: 7
probably upscaled from 720p or something, video is not so sharp for 1080p
I thought audio sounded distorted, but mpc-hc does overdrive when normalized. so it should be audio 9 and video 7. ma bad
audio: 9video: 10
Thanks a Lot thumb_up
audio: 9video: 9
Good quality of the file.

The movie is a waste of time, a big shitty movie
Show More All

User Opinions

Alex_Kid57.44K, cyber-syntoid4767, Morpheu52486, konna1552, clay011254, busaileh1086, verapacheco905, mna7254, pjspim199, theHUGEnoob195 ... And 350 more
kyokun240814, xcvb2003717, Angel_White270, colefolle204, arsonicswirl135, Venturaa2098, madness42076, jankovici18, ashu89984, kaiisbhir0 ... And 3 more
Report a bug Open chat