Traders 2015 BRRip XviD MP3-RARBG

seeders: 72
leechers: 34
updated:
Added by z0n3212.59M in Movies
Torrent verified. Downloaded 932 times.

Summary:

What if it made perfect sense for ordinary people to kill each other for money? Better than slow grinding financial ruin and misery, and all done according to a strict code by consenting adults. This is Trading.

Written by DeadShot10147.71K
Available in versions: HDRiP
Traders 2015 BRRip XviD MP3-RARBG (Size: 1.14 GB)
  rarbg.com.avi 1.14 MB
  rarbg.com.txt 34 bytes
  Traders.2015.BRRip.XviD.MP3-RARBG.avi 1.14 GB
  Traders.2015.BRRip.XviD.MP3-RARBG.nfo 3.12 KB

Description


https://rarbg.to
Traders.2015.BRRip.XviD.MP3-RARBG

image
Screens :

image

image

image

image

image
Mediainfo :

Video
ID : 0
Format : MPEG-4 Visual
Format profile : [email protected]
Format settings, BVOP : No
Format settings, QPel : No
Format settings, GMC : No warppoints
Format settings, Matrix : Default (H.263)
Codec ID : XVID
Codec ID/Hint : XviD
Duration : 1h 29mn
Bit rate : 1 599 Kbps
Width : 720 pixels
Height : 400 pixels
Display aspect ratio : 16:9
Frame rate : 23.976 fps
Color space : YUV
Chroma subsampling : 4:2:0
Bit depth : 8 bits
Scan type : Progressive
Compression mode : Lossy
Bits/(Pixel*Frame) : 0.232
Stream size : 1.00 GiB (88%)
Title : RARBG.COM - Traders.2015.BRRip.XviD.MP3-RARBG
Writing library : Lavc56.60.100

Audio
ID : 1
Format : MPEG Audio
Format version : Version 1
Format profile : Layer 3
Mode : Joint stereo
Mode extension : MS Stereo
Codec ID : 55
Codec ID/Hint : MP3
Duration : 1h 29mn
Bit rate mode : Constant
Bit rate : 192 Kbps
Channel(s) : 2 channels
Sampling rate : 48.0 KHz
Compression mode : Lossy
Stream size : 124 MiB (11%)
Alignment : Aligned on interleaves
Interleave, duration : 24 ms (0.58 video frame)
Interleave, preload duration : 24 ms
Title : RARBG.COM - Traders.2015.BRRip.XviD.MP3-RARBG
Writing library : LAME3.99.5



Related Torrents

torrent name size files age seed leech

Sharing Widget


Download torrent
1.14 GB
seeders:81
leechers:67
Traders 2015 BRRip XviD MP3-RARBG
" type="text" class="textinput"/>


To share this torrent use the code below and insert it into comments, status messages, forum posts or your signature.

Torrent: Traders 2015 BRRip XviD MP3-RARBG

Trackers

tracker name
udp://tracker.openbittorrent.com:80/announce
udp://tracker.publicbt.com:80/announce
udp://tracker.coppersurfer.tk:6969/announce
udp://9.rarbg.me:2710/announce
udp://p4p.arenabg.com:1337/announce
http://tracker.trackerfix.com/announce
udp://9.rarbg.to:2710/announce
udp://tracker.opentrackr.org:1337/announce
ĀµTorrent compatible trackers list

Locations

name
KickassTorrents
Torrent hash: C67E41A9ABBC5C9A3D40C9829FBB9445851AB490

All Comments

audio
9/10
video
9/10
please, leave only comments related to that torrent
Sign In


User Opinions

Report a bug Open chat