Top Gear US S08E05 Military Might 720p HDTV x264-DHD[rartv]

seeders: 66
leechers: 11
updated:
Added by z0n3212.56M in TV
Torrent verified. Downloaded 5,754 times.

  • View all Top Gear (US) episodes
  • Episode title: Military Might
  • Episode: S08E05
  • Air date: 17 May 2016
  • TVmaze link: Top Gear (US)
  • Original run: 14 May 2010 — Present
  • Summary:

    The hosts Adam Ferrara, Rutledge Wood and Tanner Foust talk about what ever you need to know about cars and in every episode they go through a list of challenges to know who chose the best car that fits there challenges.

    Written by Thhaque414.89K
Available in versions: 720p480pHDTVx264x265
Top Gear US S08E05 Military Might 720p HDTV x264-DHD[rartv] (Size: 1.08 GB)
  rarbg.com.txt 34 bytes
  Top.Gear.US.S08E05.Military.Might.720p.HDTV.x264-DHD.mkv 1.08 GB
  top.gear.us.s08e05.720p-dhd.nfo 362 bytes

Description


https://rarbg.to
Top.Gear.US.S08E05.Military.Might.720p.HDTV.x264-DHD[rartv]

image
Screens :

image
Mediainfo :

Video
ID : 1
Format : AVC
Format/Info : Advanced Video Codec
Format profile : [email protected]
Format settings, CABAC : Yes
Format settings, ReFrames : 5 frames
Codec ID : V_MPEG4/ISO/AVC
Duration : 41mn 58s
Bit rate : 3 287 Kbps
Width : 1 280 pixels
Height : 720 pixels
Display aspect ratio : 16:9
Frame rate mode : Constant
Frame rate : 23.976 (24000/1001) fps
Color space : YUV
Chroma subsampling : 4:2:0
Bit depth : 8 bits
Scan type : Progressive
Bits/(Pixel*Frame) : 0.149
Stream size : 987 MiB (89%)
Writing library : x264 core 148 r2694 3b70645
Encoding settings : cabac=1 / ref=5 / deblock=1:0:0 / analyse=0x3:0x113 / me=umh / subme=8 / psy=1 / psy_rd=1.00:0.00 / mixed_ref=1 / me_range=16 / chroma_me=1 / trellis=1 / 8x8dct=1 / cqm=0 / deadzone=21,11 / fast_pskip=1 / chroma_qp_offset=-2 / threads=12 / lookahead_threads=2 / sliced_threads=0 / nr=0 / decimate=1 / interlaced=0 / bluray_compat=0 / constrained_intra=0 / bframes=3 / b_pyramid=2 / b_adapt=2 / b_bias=0 / direct=3 / weightb=1 / open_gop=0 / weightp=2 / keyint=250 / keyint_min=23 / scenecut=40 / intra_refresh=0 / rc_lookahead=50 / rc=crf / mbtree=1 / crf=21.0 / qcomp=0.60 / qpmin=0 / qpmax=69 / qpstep=4 / ip_ratio=1.40 / aq=1:1.00
Default : Yes
Forced : No
Color range : Limited
Matrix coefficients : BT.709

Audio
ID : 2
Format : AC-3
Format/Info : Audio Coding 3
Mode extension : CM (complete main)
Format settings, Endianness : Big
Codec ID : A_AC3
Duration : 41mn 58s
Bit rate mode : Constant
Bit rate : 384 Kbps
Channel(s) : 6 channels
Channel positions : Front: L C R, Side: L R, LFE
Sampling rate : 48.0 KHz
Frame rate : 31.250 fps (1536 spf)
Compression mode : Lossy
Stream size : 115 MiB (10%)
Default : Yes
Forced : No

Text
ID : 3
Format : UTF-8
Codec ID : S_TEXT/UTF8
Codec ID/Info : UTF-8 Plain Text
Duration : 41mn 46s
Bit rate : 98 bps
Count of elements : 985
Stream size : 30.3 KiB (0%)
Language : English
Default : No
Forced : No

Sharing Widget


Download torrent
1.08 GB
seeders:64
leechers:4
Top Gear US S08E05 Military Might 720p HDTV x264-DHD[rartv]



To share this torrent use the code below and insert it into comments, status messages, forum posts or your signature.

Torrent: Top Gear US S08E05 Military Might 720p HDTV x264-DHD[rartv]

Trackers

tracker name
udp://tracker.openbittorrent.com:80/announce
http://retracker.krs-ix.ru/announce
udp://tracker.coppersurfer.tk:6969/announce
http://tracker.aletorrenty.pl:2710/announce
udp://glotorrents.pw:6969/announce
http://thetracker.org/announce
http://tracker2.wasabii.com.tw:6969/announce
http://tracker.mg64.net:6881/announce
http://explodie.org:6969/announce
udp://tracker.opentrackr.org:1337/announce
µTorrent compatible trackers list

Locations

name
KickassTorrents
Torrent hash: D5787E7C47813FB184CFA68C411D9189B5970976

Top Comments

3
Marv74br260
audio: 10video: 8
Thanks! But this is s06e05
3
ScoobyJD87
this is s06e05 there is no season 7 or season 8.

https://tinyurl.com/jmr83um
^^^^^^^^^^^^
trakt link

All Comments

audio
9/10
video
9/10
please, leave only comments related to that torrent
Sign In

audio: 10video: 10
Why does the new episodes are renamed as Season 08??? They still only aired 6 Seasons...
audio: 9video: 10
Thanks! thumb_up
audio: 10video: 10
Thanks
this is s06e05 there is no season 7 or season 8.

https://tinyurl.com/jmr83um
^^^^^^^^^^^^
trakt link
Glad I'm not the only one who's noticed this trend. I think it's because a couple of seasons were aired as two halves, and people just assumed a break meant a whole new season.
I think it might be because the IMDB page says this is s08e05 and someone may have automated their numbering based on IMDB
From History Channel official page, it's season 8: http://www.history.com/shows/top-gear
Thank you for clarifying. I was wondering which was the right episode.

The most boring episode ever!!! A=9, V=9 Thanks.
audio: 10video: 8
Thanks! But this is s06e05

User Opinions

bennianna11.74K, planet14894, vick131634, viktor10101125, HiLuckyB758, Canadaguy1959643, kuraikaze561, fiekster405, sheratan269, hant100 ... And 88 more
Report a bug Open chat