Top Gear US S08E04 Car for Life 720p HDTV x264-DHD[rartv]

seeders: 49
leechers: 15
updated:
Added by z0n3212.57M in TV
Torrent verified. Downloaded 4,812 times.

  • View all Top Gear (US) episodes
  • Episode title: Car For Life
  • Episode: S08E04
  • Air date: 10 May 2016
  • TVmaze link: Top Gear (US)
  • Original run: 14 May 2010 — Present
  • Summary:

    The hosts Adam Ferrara, Rutledge Wood and Tanner Foust talk about what ever you need to know about cars and in every episode they go through a list of challenges to know who chose the best car that fits there challenges.

    Written by Thhaque414.93K
Available in versions: 720p480pHDTVx264x265
Top Gear US S08E04 Car for Life 720p HDTV x264-DHD[rartv] (Size: 887.98 MB)
  rarbg.com.txt 34 bytes
  Top.Gear.US.S08E04.Car.for.Life.720p.HDTV.x264-DHD.mkv 886.04 MB
  top.gear.us.s08e04.720p-dhd.nfo 359 bytes
  Sample

Description


https://rarbg.to
Top.Gear.US.S08E04.Car.for.Life.720p.HDTV.x264-DHD[rartv]

image
Screens :

image
Mediainfo :

Video
ID : 1
Format : AVC
Format/Info : Advanced Video Codec
Format profile : [email protected]
Format settings, CABAC : Yes
Format settings, ReFrames : 5 frames
Codec ID : V_MPEG4/ISO/AVC
Duration : 41mn 54s
Bit rate : 2 569 Kbps
Width : 1 280 pixels
Height : 720 pixels
Display aspect ratio : 16:9
Frame rate mode : Constant
Frame rate : 23.976 (24000/1001) fps
Color space : YUV
Chroma subsampling : 4:2:0
Bit depth : 8 bits
Scan type : Progressive
Bits/(Pixel*Frame) : 0.116
Stream size : 770 MiB (87%)
Writing library : x264 core 148 r2694 3b70645
Encoding settings : cabac=1 / ref=5 / deblock=1:0:0 / analyse=0x3:0x113 / me=umh / subme=8 / psy=1 / psy_rd=1.00:0.00 / mixed_ref=1 / me_range=16 / chroma_me=1 / trellis=1 / 8x8dct=1 / cqm=0 / deadzone=21,11 / fast_pskip=1 / chroma_qp_offset=-2 / threads=12 / lookahead_threads=2 / sliced_threads=0 / nr=0 / decimate=1 / interlaced=0 / bluray_compat=0 / constrained_intra=0 / bframes=3 / b_pyramid=2 / b_adapt=2 / b_bias=0 / direct=3 / weightb=1 / open_gop=0 / weightp=2 / keyint=250 / keyint_min=23 / scenecut=40 / intra_refresh=0 / rc_lookahead=50 / rc=crf / mbtree=1 / crf=21.0 / qcomp=0.60 / qpmin=0 / qpmax=69 / qpstep=4 / ip_ratio=1.40 / aq=1:1.00
Default : Yes
Forced : No
Color range : Limited
Matrix coefficients : BT.709

Audio
ID : 2
Format : AC-3
Format/Info : Audio Coding 3
Mode extension : CM (complete main)
Format settings, Endianness : Big
Codec ID : A_AC3
Duration : 41mn 54s
Bit rate mode : Constant
Bit rate : 384 Kbps
Channel(s) : 6 channels
Channel positions : Front: L C R, Side: L R, LFE
Sampling rate : 48.0 KHz
Frame rate : 31.250 fps (1536 spf)
Compression mode : Lossy
Stream size : 115 MiB (13%)
Default : Yes
Forced : No

Text
ID : 3
Format : UTF-8
Codec ID : S_TEXT/UTF8
Codec ID/Info : UTF-8 Plain Text
Duration : 41mn 51s
Bit rate : 118 bps
Count of elements : 1016
Stream size : 36.4 KiB (0%)
Language : English
Default : No
Forced : No

Related Torrents

torrent name size files age seed leech

Sharing Widget


Download torrent
887.98 MB
seeders:51
leechers:9
Top Gear US S08E04 Car for Life 720p HDTV x264-DHD[rartv]



To share this torrent use the code below and insert it into comments, status messages, forum posts or your signature.

Torrent: Top Gear US S08E04 Car for Life 720p HDTV x264-DHD[rartv]

Trackers

tracker name
udp://tracker.openbittorrent.com:80/announce
http://retracker.krs-ix.ru/announce
udp://tracker.coppersurfer.tk:6969/announce
udp://glotorrents.pw:6969/announce
http://mgtracker.org:2710/announce
http://thetracker.org/announce
http://tracker.mg64.net:6881/announce
http://explodie.org:6969/announce
http://open.acgtracker.com:1096/announce
udp://tracker.opentrackr.org:1337/announce
µTorrent compatible trackers list

Locations

name
KickassTorrents
Torrent hash: 0A59C67D978CE027B681E4A8EBC1E765B2B94B95

All Comments

audio
9/10
video
9/10
please, leave only comments related to that torrent
Sign In

audio: 10video: 10
Why does the new episodes are renamed as Season 08??? They still only aired 6 Seasons...
audio: 10video: 9
Thanks! thumb_up
audio: 10video: 10
Thanks
audio: 9video: 10
Thanks a lot, great torrent - v. good quality thumb_upcoolthumb_up
audio: 9video: 9
Thank you :)

User Opinions

SkyMtn118.18K, bennianna11.74K, planet14896, vick131634, sallowdevil810, ebonyrose763, kuraikaze561, fiekster405, sheratan269, wazliz211 ... And 98 more
Report a bug Open chat