Top Gear S23E04 720p HDTV x264-FoV[rartv]

seeders: 386
leechers: 11
updated:
Added by z0n3212.56M in TV
Torrent verified. Downloaded 45,788 times.

  • View all Top Gear episodes
  • Episode title: Episode 4
  • Episode: S23E04
  • Air date: 19 June 2016
  • IMDb link: 1628033
  • TVmaze link: Top Gear
  • Original run: 20 October 2002 — Present
  • Summary:

    This fast-paced and stunt-filled motor show tests whether cars, both mundane and extraordinary, live up to their manufacturers' claims. The long-running show travels to locations around the world, performing extreme stunts and challenges to see what the featured cars are capable of doing.

    Written by Eppo77.2K Last edited by WyldChyld, 3 weeks ago
Available in versions: 1080p720p480pHDTVx264x265
Top Gear S23E04 720p HDTV x264-FoV[rartv] (Size: 1.56 GB)
  rarbg.com.txt 34 bytes
  top.gear.s23e04.720p.hdtv.x264-fov.nfo 9.69 KB
  top_gear.23x04.720p_hdtv_x264-fov.mkv 1.56 GB

Description


https://rarbg.to
Top.Gear.S23E04.720p.HDTV.x264-FoV[rartv]

image
Screens :

image
Mediainfo :

Video
ID : 1
Format : AVC
Format/Info : Advanced Video Codec
Format profile : [email protected]
Format settings, CABAC : Yes
Format settings, ReFrames : 5 frames
Codec ID : V_MPEG4/ISO/AVC
Duration : 1h 0mn
Bit rate : 3 407 Kbps
Width : 1 280 pixels
Height : 720 pixels
Display aspect ratio : 16:9
Frame rate mode : Constant
Frame rate : 25.000 fps
Color space : YUV
Chroma subsampling : 4:2:0
Bit depth : 8 bits
Scan type : Progressive
Bits/(Pixel*Frame) : 0.148
Stream size : 1.45 GiB (93%)
Writing library : x264 core 148 r2694 3b70645
Encoding settings : opencl=1 / cabac=1 / ref=5 / deblock=1:0:0 / analyse=0x3:0x113 / me=umh / subme=8 / psy=1 / psy_rd=1.00:0.00 / mixed_ref=1 / me_range=16 / chroma_me=1 / trellis=1 / 8x8dct=1 / cqm=0 / deadzone=21,11 / fast_pskip=1 / chroma_qp_offset=-2 / threads=18 / lookahead_threads=3 / sliced_threads=0 / nr=0 / decimate=1 / interlaced=0 / bluray_compat=0 / constrained_intra=0 / bframes=3 / b_pyramid=2 / b_adapt=2 / b_bias=0 / direct=3 / weightb=1 / open_gop=0 / weightp=2 / keyint=250 / keyint_min=25 / scenecut=40 / intra_refresh=0 / rc_lookahead=50 / rc=crf / mbtree=1 / crf=20.0 / qcomp=0.60 / qpmin=0 / qpmax=69 / qpstep=4 / ip_ratio=1.40 / aq=1:1.00
Language : English
Default : Yes
Forced : No
Color range : Limited
Matrix coefficients : BT.709

Audio
ID : 2
Format : AC-3
Format/Info : Audio Coding 3
Mode extension : CM (complete main)
Format settings, Endianness : Big
Codec ID : A_AC3
Duration : 1h 0mn
Bit rate mode : Constant
Bit rate : 192 Kbps
Channel(s) : 2 channels
Channel positions : Front: L R
Sampling rate : 48.0 KHz
Frame rate : 31.250 fps (1536 spf)
Compression mode : Lossy
Stream size : 83.4 MiB (5%)
Default : Yes
Forced : No

Related Torrents

torrent name size files age seed leech

Sharing Widget


Download torrent
1.56 GB
seeders:482
leechers:24
Top Gear S23E04 720p HDTV x264-FoV[rartv]



To share this torrent use the code below and insert it into comments, status messages, forum posts or your signature.

Torrent: Top Gear S23E04 720p HDTV x264-FoV[rartv]

Trackers

tracker name
udp://tracker.openbittorrent.com:80/announce
udp://tracker.publicbt.com:80/announce
udp://tracker.coppersurfer.tk:6969/announce
udp://9.rarbg.me:2710/announce
udp://p4p.arenabg.com:1337/announce
http://tracker.trackerfix.com/announce
udp://9.rarbg.to:2710/announce
udp://tracker.opentrackr.org:1337/announce
µTorrent compatible trackers list

Locations

name
KickassTorrents
Torrent hash: 1436B786DD5B6CE5A2093C6811F932146FB7349A

Top Comments

16
itachi101491
audio: 10video: 10
hopin to end this show fast
8
BruteShmut277
Not enjoying the new season of top gear. The chemistry the old 3 guys had vs a red headed guy and a burned out actor leading a way makes the show totally unwatchable. It's not funny anymore either.
8
anonymous
Eagerly waiting for Clarkson's show.
3
NailMe1219
Actually, i thought this episode was quite enjoyable (compared to the previous three), it's not even close to Clarkson, May and Hamster era.

And as we all know, Jordan and Evans are rubbish. TG like this won't last much longer, thankfully Extra Gear is far more entertaining and a better chemistry, maybe they should pull the plug out of TG move Matt to EG and continue with those three guys.

Ps. great video/audio quality though.

Last edited by NailMe, 2 weeks ago

All Comments

audio
9/10
video
9/10
please, leave only comments related to that torrent
Sign In

audio: 9video: 9
Eagerly waiting for the complaining old woman to grow the f up.
audio: 9video: 9
thanks uploader...
audio: 6video: 8
A slight issue with 'fuzzy' sound, but nothing major. Virus-free and OK playback via VLC. Thank you z0n321 for uploading - very much appreciated my friend!
I'll keep watching it... It'll never be those three scripted idiots we all love to cringe over, but a new breed of idiots. It's entertainment, and quality at that.
Show More All

User Opinions

jc0556675, Rigmar_Radio5541, CypryanV3920, Highslayer1676, e.emizerp426, themonk011367, demonichex310, Skelde75, dfuse38, djdeeles36 ... And 469 more
OwlTheWise841, dails87, ivankurcina61, vindzel26, DarkWingz3
Report a bug Open chat