The Last Ship S03E05 720p HDTV X264-DIMENSION[rartv]

seeders: 500
leechers: 62
updated:
Added by z0n3212.56M in TV
Torrent verified. Downloaded 28,605 times.

  • View all The Last Ship episodes
  • Episode title: Minefield
  • Episode: S03E05
  • Air date: 10 July 2016
  • IMDb link: 2402207
  • TVmaze link: The Last Ship
  • Original run: 22 June 2014 — Present
  • Summary:

    The crew of a naval destroyer is forced to confront the reality of a new existence when a pandemic kills off most of the earth's population.

    Written by Thhaque414.88K
Available in versions: 1080p720p480pHDTVWEBRipx264x265
The Last Ship S03E05 720p HDTV X264-DIMENSION[rartv] (Size: 1.04 GB)
  rarbg.com.txt 34 bytes
  The.Last.Ship.S03E05.720p.HDTV.X264-DIMENSION.mkv 1.04 GB
  the.last.ship.305.720p-dimension.nfo 251 bytes

Description


https://rarbg.to
The.Last.Ship.S03E05.720p.HDTV.X264-DIMENSION[rartv]

image
Screens :

image
Mediainfo :

Video
ID : 1
Format : AVC
Format/Info : Advanced Video Codec
Format profile : [email protected]
Format settings, CABAC : Yes
Format settings, ReFrames : 8 frames
Codec ID : V_MPEG4/ISO/AVC
Duration : 41mn 54s
Bit rate : 3 045 Kbps
Width : 1 280 pixels
Height : 712 pixels
Display aspect ratio : 16:9
Frame rate mode : Constant
Frame rate : 23.976 (24000/1001) fps
Color space : YUV
Chroma subsampling : 4:2:0
Bit depth : 8 bits
Scan type : Progressive
Bits/(Pixel*Frame) : 0.139
Stream size : 913 MiB (85%)
Writing library : x264 core 148 r2705 3f5ed56
Encoding settings : cabac=1 / ref=8 / deblock=1:-2:-2 / analyse=0x3:0x113 / me=umh / subme=9 / psy=1 / psy_rd=1.00:0.00 / mixed_ref=1 / me_range=24 / chroma_me=1 / trellis=1 / 8x8dct=1 / cqm=0 / deadzone=21,11 / fast_pskip=0 / chroma_qp_offset=-2 / threads=18 / lookahead_threads=2 / sliced_threads=0 / nr=0 / decimate=1 / interlaced=0 / bluray_compat=0 / constrained_intra=0 / bframes=5 / b_pyramid=2 / b_adapt=2 / b_bias=0 / direct=3 / weightb=1 / open_gop=0 / weightp=2 / keyint=250 / keyint_min=23 / scenecut=40 / intra_refresh=0 / rc_lookahead=50 / rc=crf / mbtree=1 / crf=18.0 / qcomp=0.60 / qpmin=0 / qpmax=69 / qpstep=4 / ip_ratio=1.40 / aq=1:1.00
Language : English
Default : No
Forced : No

Audio
ID : 2
Format : AC-3
Format/Info : Audio Coding 3
Mode extension : CM (complete main)
Format settings, Endianness : Big
Codec ID : A_AC3
Duration : 41mn 54s
Bit rate mode : Constant
Bit rate : 448 Kbps
Channel(s) : 6 channels
Channel positions : Front: L C R, Side: L R, LFE
Sampling rate : 48.0 KHz
Frame rate : 31.250 fps (1536 spf)
Compression mode : Lossy
Stream size : 134 MiB (13%)
Default : Yes
Forced : No

Related Torrents

torrent name size files age seed leech

Sharing Widget


Download torrent
1.04 GB
seeders:496
leechers:62
The Last Ship S03E05 720p HDTV X264-DIMENSION[rartv]



To share this torrent use the code below and insert it into comments, status messages, forum posts or your signature.

Torrent: The Last Ship S03E05 720p HDTV X264-DIMENSION[rartv]

Trackers

tracker name
udp://tracker.openbittorrent.com:80/announce
udp://tracker.publicbt.com:80/announce
udp://tracker.coppersurfer.tk:6969/announce
udp://9.rarbg.me:2710/announce
udp://p4p.arenabg.com:1337/announce
http://tracker.trackerfix.com/announce
udp://9.rarbg.to:2710/announce
udp://tracker.opentrackr.org:1337/announce
µTorrent compatible trackers list

Locations

name
KickassTorrents
Torrent hash: 37CFE00105345794CDD169A1CC21D5DC6C0F8BE3

All Comments

audio
9/10
video
9/10
please, leave only comments related to that torrent
Sign In

User Opinions

Gotchinezcki11.21K, pppawn6190, Zahrdahl5322, Frago2224813, FERRYMAN-23124419, osun3114, subby471806, oacuspocus1763, apostolis1591267, GSI4257 ... And 86 more
Report a bug Open chat