The Flash 2014 S02E20 720p HDTV X264-DIMENSION[rartv]

seeders: 175
leechers: 8
updated:
Added by z0n3212.56M in TV
Torrent verified. Downloaded 241,407 times.

  • View all The Flash (2014) episodes
  • Episode title: Rupture
  • Episode: S02E20
  • Air date: 03 May 2016
  • IMDb link: 3107288
  • TVmaze link: The Flash (2014)
  • Original run: 24 June 2014 — Present
  • Summary:

    Barry Allen wakes up 9 months after he was struck by lightning and discovers that the bolt gave him the power of super speed. With his new team and powers, Barry becomes "The Flash" and fights crime in Central City.

    Written by Thhaque414.88K
Available in versions: 1080p720p480pHDTVWEBRipx264x265
The Flash 2014 S02E20 720p HDTV X264-DIMENSION[rartv] (Size: 869.37 MB)
  rarbg.com.txt 34 bytes
  The.Flash.2014.S02E20.720p.HDTV.X264-DIMENSION.mkv 869.37 MB
  the.flash.220.720p-dimension.nfo 783 bytes

Description


https://rarbg.to
The.Flash.2014.S02E20.720p.HDTV.X264-DIMENSION[rartv]

image
Screens :

image
Mediainfo :

Video
ID : 1
Format : AVC
Format/Info : Advanced Video Codec
Format profile : [email protected]
Format settings, CABAC : Yes
Format settings, ReFrames : 8 frames
Codec ID : V_MPEG4/ISO/AVC
Duration : 42mn 28s
Bit rate : 2 476 Kbps
Width : 1 280 pixels
Height : 720 pixels
Display aspect ratio : 16:9
Frame rate mode : Constant
Frame rate : 23.976 (24000/1001) fps
Color space : YUV
Chroma subsampling : 4:2:0
Bit depth : 8 bits
Scan type : Progressive
Bits/(Pixel*Frame) : 0.112
Stream size : 752 MiB (87%)
Writing library : x264 core 148 r2665 a01e339
Encoding settings : cabac=1 / ref=8 / deblock=1:-2:-2 / analyse=0x3:0x113 / me=umh / subme=9 / psy=1 / psy_rd=1.00:0.00 / mixed_ref=1 / me_range=24 / chroma_me=1 / trellis=1 / 8x8dct=1 / cqm=0 / deadzone=21,11 / fast_pskip=0 / chroma_qp_offset=-2 / threads=18 / lookahead_threads=2 / sliced_threads=0 / nr=0 / decimate=1 / interlaced=0 / bluray_compat=0 / constrained_intra=0 / bframes=5 / b_pyramid=2 / b_adapt=2 / b_bias=0 / direct=3 / weightb=1 / open_gop=0 / weightp=2 / keyint=250 / keyint_min=23 / scenecut=40 / intra_refresh=0 / rc_lookahead=50 / rc=crf / mbtree=1 / crf=18.0 / qcomp=0.60 / qpmin=0 / qpmax=69 / qpstep=4 / ip_ratio=1.40 / aq=1:1.00
Language : English
Default : Yes
Forced : No

Audio
ID : 2
Format : AC-3
Format/Info : Audio Coding 3
Mode extension : CM (complete main)
Format settings, Endianness : Big
Codec ID : A_AC3
Duration : 42mn 28s
Bit rate mode : Constant
Bit rate : 384 Kbps
Channel(s) : 6 channels
Channel positions : Front: L C R, Side: L R, LFE
Sampling rate : 48.0 KHz
Frame rate : 31.250 fps (1536 spf)
Compression mode : Lossy
Stream size : 117 MiB (13%)
Default : Yes
Forced : No

Related Torrents

torrent name size files age seed leech

Sharing Widget


Download torrent
869.37 MB
seeders:249
leechers:18
The Flash 2014 S02E20 720p HDTV X264-DIMENSION[rartv]



To share this torrent use the code below and insert it into comments, status messages, forum posts or your signature.

Torrent: The Flash 2014 S02E20 720p HDTV X264-DIMENSION[rartv]

Trackers

tracker name
udp://tracker.openbittorrent.com:80/announce
udp://tracker.publicbt.com:80/announce
udp://tracker.coppersurfer.tk:6969/announce
udp://9.rarbg.me:2710/announce
udp://glotorrents.pw:6969/announce
http://tracker.trackerfix.com/announce
udp://9.rarbg.to:2710/announce
udp://tracker.opentrackr.org:1337/announce
µTorrent compatible trackers list

Locations

name
KickassTorrents
Torrent hash: 33FCFD153552F0032F938C82EE70A4171EAD7961

All Comments

audio
9/10
video
9/10
please, leave only comments related to that torrent
Sign In

audio: 10video: 10
coolGreat quality & rip/encoding.
Thanks.rock
audio: 10video: 10
Good quality U/L, Thanks
audio: 9video: 9
Thanks, mate.
audio: 9video: 9
Excellent copy. Looks great on a 70"/178cm led screen. Great audio. Thank you.
Thank you very much.
audio: 9video: 9
Thanks.
Appreciate Your Work. thump_up
pirate
audio: 10video: 10
Thanks!
Show More All

User Opinions

Emee.sb2552, valentyn02099, $hadow[PT]1729, apostolis1591267, zybor953, albertoU667, XavierPryce462, dienasty1988348, cleber123141, Yanou3501109 ... And 1025 more
DanDaMan83515, HotRod9060100, r_buarki24
Report a bug Open chat