The Big Bang Theory S09E23 720p HDTV X264-DIMENSION[rartv]

seeders: 175
leechers: 8
updated:
Added by z0n3212.56M in TV
Torrent verified. Downloaded 127,464 times.

  • View all The Big Bang Theory episodes
  • Episode title: The Line Substitution Solution
  • Episode: S09E23
  • Air date: 05 May 2016
  • IMDb link: 0898266
  • TVmaze link: The Big Bang Theory
  • Original run: 24 September 2007 — Present
  • Summary:

    The Big Bang Theory is a comedy series about four young scientists who know all about the world of physics, and one girl, who gives the physics world a real spin.

    Written by Xenomorph101.61K
Available in versions: 1080p720p480pHDTVWEBRipx264x265iPhone
The Big Bang Theory S09E23 720p HDTV X264-DIMENSION[rartv] (Size: 399.87 MB)
  rarbg.com.txt 34 bytes
  The.Big.Bang.Theory.S09E23.720p.HDTV.X264-DIMENSION.mkv 399.87 MB
  the.big.bang.theory.923.720p-dimension.nfo 337 bytes

Description


https://rarbg.to
The.Big.Bang.Theory.S09E23.720p.HDTV.X264-DIMENSION[rartv]

image
Screens :

image
Mediainfo :

Video
ID : 1
Format : AVC
Format/Info : Advanced Video Codec
Format profile : [email protected]
Format settings, CABAC : Yes
Format settings, ReFrames : 8 frames
Codec ID : V_MPEG4/ISO/AVC
Duration : 18mn 41s
Bit rate : 2 547 Kbps
Width : 1 280 pixels
Height : 720 pixels
Display aspect ratio : 16:9
Frame rate mode : Constant
Frame rate : 23.976 (24000/1001) fps
Color space : YUV
Chroma subsampling : 4:2:0
Bit depth : 8 bits
Scan type : Progressive
Bits/(Pixel*Frame) : 0.115
Stream size : 341 MiB (85%)
Writing library : x264 core 148 r2665 a01e339
Encoding settings : cabac=1 / ref=8 / deblock=1:-2:-2 / analyse=0x3:0x113 / me=umh / subme=9 / psy=1 / psy_rd=1.00:0.00 / mixed_ref=1 / me_range=24 / chroma_me=1 / trellis=1 / 8x8dct=1 / cqm=0 / deadzone=21,11 / fast_pskip=0 / chroma_qp_offset=-2 / threads=18 / lookahead_threads=2 / sliced_threads=0 / nr=0 / decimate=1 / interlaced=0 / bluray_compat=0 / constrained_intra=0 / bframes=5 / b_pyramid=2 / b_adapt=2 / b_bias=0 / direct=3 / weightb=1 / open_gop=0 / weightp=2 / keyint=250 / keyint_min=23 / scenecut=40 / intra_refresh=0 / rc_lookahead=50 / rc=crf / mbtree=1 / crf=18.0 / qcomp=0.60 / qpmin=0 / qpmax=69 / qpstep=4 / ip_ratio=1.40 / aq=1:1.00
Language : English
Default : No
Forced : No

Audio
ID : 2
Format : AC-3
Format/Info : Audio Coding 3
Mode extension : CM (complete main)
Format settings, Endianness : Big
Codec ID : A_AC3
Duration : 18mn 41s
Bit rate mode : Constant
Bit rate : 384 Kbps
Channel(s) : 6 channels
Channel positions : Front: L C R, Side: L R, LFE
Sampling rate : 48.0 KHz
Frame rate : 31.250 fps (1536 spf)
Compression mode : Lossy
Stream size : 51.3 MiB (13%)
Default : Yes
Forced : No

Related Torrents

torrent name size files age seed leech

Sharing Widget


Download torrent
399.87 MB
seeders:26
leechers:2
The Big Bang Theory S09E23 720p HDTV X264-DIMENSION[rartv]



To share this torrent use the code below and insert it into comments, status messages, forum posts or your signature.

Torrent: The Big Bang Theory S09E23 720p HDTV X264-DIMENSION[rartv]

Trackers

tracker name
udp://tracker.openbittorrent.com:80/announce
udp://tracker.coppersurfer.tk:6969/announce
http://tracker.aletorrenty.pl:2710/announce
udp://glotorrents.pw:6969/announce
http://mgtracker.org:2710/announce
http://tracker2.wasabii.com.tw:6969/announce
http://open.acgtracker.com:1096/announce
http://tracker.dler.org:6969/announce
udp://tracker.opentrackr.org:1337/announce
udp://zer0day.ch:1337/announce
µTorrent compatible trackers list

Locations

name
KickassTorrents
Torrent hash: 80372C8C25916B9C09F69F32A0F4BC9AEC6BB70F

All Comments

audio
9/10
video
9/10
please, leave only comments related to that torrent
Sign In

audio: 10video: 10
Thanks!!
audio: 9video: 9
Excellent copy. Looks great on a 70"/178cm led screen. Great audio. Thank you.
audio: 9video: 9
Thx cabeza!
audio: 10video: 9
Thanks for the upload :)
Show More All
audio: 1video: 1

User Opinions

msjordan3637, Emee.sb2556, a_jay2091, $hadow[PT]1729, lockley976, zybor953, Shrey.m949, albertoU671, decent.devil416, loyis7343 ... And 799 more
Report a bug Open chat