Penny Dreadful Season 3 S03 1080p NF WEBRip DD5.1 HEVC x265-LGC

seeders: 75
leechers: 31
updated:
Added by lglenwoodc21.5K in TV
Torrent verified. Downloaded 1,631 times.

Available in versions: 1080p720p480pHDTVWEBRipx264x265
Penny Dreadful Season 3 S03 1080p NF WEBRip DD5.1 HEVC x265-LGC (Size: 6.89 GB)
  Penny.Dreadful.S03E06.No.Beast.So.Fierce.1080p.NF.WEBRip.DD5.1.x265-LGC.mkv 727.82 MB
  Penny.Dreadful.S03E07.Ebb.Tide.1080p.NF.WEBRip.DD5.1.x265-LGC.mkv 833.11 MB
  Penny.Dreadful.S03E08.Perpetual.Night.1080p.NF.WEBRip.DD5.1.x265-LGC.mkv 640.5 MB
  Penny.Dreadful.S03E09.The.Blessed.Dark.1080p.NF.WEBRip.DD5.1.x265-LGC.mkv 816.11 MB
  Penny.Dreadful.S03E05.This.World.Is.Our.Hell.1080p.NF.WEBRip.DD5.1.x265-LGC.mkv 787.62 MB
  Penny.Dreadful.S03E04.A.Blade.Of.Grass.1080p.NF.WEBRip.DD5.1.x265-LGC.mkv 824.83 MB
  Penny.Dreadful.S03E01.The.Day.Tennyson.Died.1080.NF.WEBRip.DD5.1.x265-LGC.mkv 859.73 MB
  Penny.Dreadful.S03E02.Predators.Far.And.Near.1080p.NF.WEBRip.DD5.1.x265-LGC.mkv 794.86 MB
  Penny.Dreadful.S03E03.Good.And.Evil.Braided.Be.1080p.NF.WEBRip.DD5.1.x265-LGC.mkv 765.61 MB
  Penny Dreadful - (folder icon).ico 192.05 KB

Description


Individual Episodes Link Thread: LGC Releases

image

WARNING: High Efficiency Video Coding HEVC x265

This is re-encoded with the new generation video codec HEVC. It will probably not work on your TV or BD player unless it's a recent one that supports x265 ! (or unless you plug a computer to your TV via HDMI)
Recommended Windows OS: MPC-HC Player with K-Lite self updating codec pack and MediaInfo combination for High Efficiency Video Coding HEVC x265 PLAYBACK




LGC Releases


High Efficiency Video Coding HEVC x265


Individual Episodes Link Thread: LGC Releases

SAMPLE: Season 3 Episode 1
Penny.Dreadful.S03E01.The.Day.Tennyson.Died.1080.NF.WEBRip.DD5.1.x265-LGC.mkv
Format : Matroska
Format version : Version 2
File size : 860 MiB
Duration : 59mn 3s
Overall bit rate : 2 035 Kbps
Encoded date : UTC 2016-05-04T16:22:11Z
Writing application : HandBrake 0.10.5 2016021100
Writing library : Lavf55.12.0 / Lavf55.12.0

Video
ID : 1
Format : HEVC
Format/Info : High Efficiency Video Coding
Format profile : [email protected]@Main
Codec ID : V_MPEGH/ISO/HEVC
Duration : 59mn 3s
Bit rate : 1 611 Kbps
Width : 1 920 pixels
Height : 1 080 pixels
Display aspect ratio : 16:9
Frame rate mode : Constant
Frame rate : 23.976 (24000/1001) fps
Color space : YUV
Chroma subsampling : 4:2:0
Bit depth : 8 bits
Bits/(Pixel*Frame) : 0.032
Stream size : 680 MiB (79%)
Writing library : x265 1.9:[Windows][GCC 4.9.0][64 bit] 8bit
Encoding settings : wpp / ctu=32 / min-cu-size=16 / max-tu-size=32 / tu-intra-depth=1 / tu-inter-depth=1 / me=0 / subme=0 / merange=57 / no-rect / no-amp / max-merge=2 / temporal-mvp / early-skip / rdpenalty=0 / no-tskip / no-tskip-fast / strong-intra-smoothing / no-lossless / no-cu-lossless / no-constrained-intra / fast-intra / open-gop / no-temporal-layers / interlace=0 / keyint=240 / min-keyint=24 / scenecut=0 / rc-lookahead=5 / lookahead-slices=6 / bframes=3 / bframe-bias=0 / b-adapt=0 / ref=1 / limit-refs=0 / no-limit-modes / no-weightp / no-weightb / aq-mode=1 / qg-size=32 / aq-strength=0.00 / cbqpoffs=0 / crqpoffs=0 / rd=2 / psy-rd=2.00 / rdoq-level=0 / psy-rdoq=0.00 / no-signhide / deblock / no-sao / no-sao-non-deblock / b-pyramid / cutree / no-intra-refresh / rc=2 / pass / bitrate=1650 / qcomp=0.60 / qpmin=0 / qpmax=51 / qpstep=4 / cplxblur=20.0 / qblur=0.5 / ipratio=1.40 / pbratio=1.30
Default : Yes
Forced : No
Color range : Limited
Color primaries : BT.709
Transfer characteristics : BT.709
Matrix coefficients : BT.709

Audio
ID : 2
Format : AC-3
Format/Info : Audio Coding 3
Mode extension : CM (complete main)
Format settings, Endianness : Big
Codec ID : A_AC3
Duration : 59mn 3s
Bit rate mode : Constant
Bit rate : 384 Kbps
Channel(s) : 6 channels
Channel positions : Front: L C R, Side: L R, LFE
Sampling rate : 48.0 KHz
Frame rate : 31.250 fps (1536 spf)
Compression mode : Lossy
Stream size : 162 MiB (19%)
Title : Surround
Language : English
Default : Yes
Forced : No

Text
ID : 3
Format : ASS
Codec ID : S_TEXT/ASS
Codec ID/Info : Advanced Sub Station Alpha
Compression mode : Lossless
Language : English
Default : No
Forced : No
SOURCES: Penny.Dreadful.S03E01-E09.The.Day.Tennyson.Died.1080.NF.WEBRip.DD5.1-NTb

Individual Episodes Link Thread: LGC Releases

Related Torrents

torrent name size files age seed leech

Sharing Widget


Download torrent
6.89 GB
seeders:79
leechers:36
Penny Dreadful Season 3 S03 1080p NF WEBRip DD5.1 HEVC x265-LGC



To share this torrent use the code below and insert it into comments, status messages, forum posts or your signature.

Torrent: Penny Dreadful Season 3 S03 ...F WEBRip DD5.1 HEVC x265-LGC

Trackers

tracker name
udp://tracker.openbittorrent.com:80/announce
udp://tracker.coppersurfer.tk:6969/announce
udp://9.rarbg.me:2710/announce
udp://p4p.arenabg.com:1337/announce
http://tracker.trackerfix.com/announce
http://coalgirls.wakku.to:3277/announce
udp://9.rarbg.to:2710/announce
udp://tracker.opentrackr.org:1337/announce
µTorrent compatible trackers list

Locations

name
KickassTorrents
Torrent hash: 5B2C64CEACE7DFDBFC648262B89E324C274A46C9

All Comments

audio
10/10
video
10/10
please, leave only comments related to that torrent
Sign In

audio: 10video: 10
Thank You Friend.
Thanx! consolidating individual files into this torrent

Penny Dreadful Season 3 S03 1080p NF WEBRip DD5.1 HEVC x265-LGC

any1 need torrent/re-seed, pm me
Thank U Sir !!
Can U pls Seed !!


User Opinions

sharunseth13.24K, Leokosta6285, MissPie3772, Strit2047, jh12891644, BJDON1515, Madsonu1084, wailtop675, erick_zaponi368, earthIntruder13 ... And 33 more
Report a bug Open chat