Penny Dreadful S03E06 720p HDTV x264-AVS[rartv]

seeders: 389
leechers: 7
updated:
Added by z0n3212.56M in TV
Torrent verified. Downloaded 84,876 times.

  • View all Penny Dreadful episodes
  • Episode title: No Beast So Fierce
  • Episode: S03E06
  • Air date: 05 June 2016
  • IMDb link: 2628232
  • TVmaze link: Penny Dreadful
  • Original run: 11 May 2014 — Present
  • Summary:

    Explorer Sir Malcolm Murray, American gunslinger Ethan Chandler, and others unite to combat supernatural threats in Victorian London.

    Written by Hobo.hxr2971
Available in versions: 1080p720p480pHDTVWEBRipx264x265
Penny Dreadful S03E06 720p HDTV x264-AVS[rartv] (Size: 738.27 MB)
  Penny.Dreadful.S03E06.720p.HDTV.x264-AVS.mkv 738.27 MB
  rarbg.com.txt 34 bytes
  Penny.Dreadful.S03E06.720p.HDTV.x264-AVS.nfo 62 bytes

Description


https://rarbg.to
Penny.Dreadful.S03E06.720p.HDTV.x264-AVS[rartv]

image
Screens :

image
Mediainfo :

Video
ID : 1
Format : AVC
Format/Info : Advanced Video Codec
Format profile : [email protected]
Format settings, CABAC : Yes
Format settings, ReFrames : 5 frames
Codec ID : V_MPEG4/ISO/AVC
Duration : 49mn 16s
Bit rate : 1 669 Kbps
Width : 1 280 pixels
Height : 718 pixels
Display aspect ratio : 16:9
Frame rate mode : Constant
Frame rate : 23.976 (24000/1001) fps
Color space : YUV
Chroma subsampling : 4:2:0
Bit depth : 8 bits
Scan type : Progressive
Bits/(Pixel*Frame) : 0.076
Stream size : 588 MiB (80%)
Writing library : x264 core 148 r2692 64f4e24
Encoding settings : cabac=1 / ref=5 / deblock=1:0:0 / analyse=0x3:0x113 / me=umh / subme=8 / psy=1 / psy_rd=1.00:0.00 / mixed_ref=1 / me_range=16 / chroma_me=1 / trellis=1 / 8x8dct=1 / cqm=0 / deadzone=21,11 / fast_pskip=1 / chroma_qp_offset=-2 / threads=22 / lookahead_threads=3 / sliced_threads=0 / nr=0 / decimate=1 / interlaced=0 / bluray_compat=0 / constrained_intra=0 / bframes=3 / b_pyramid=2 / b_adapt=2 / b_bias=0 / direct=3 / weightb=1 / open_gop=0 / weightp=2 / keyint=250 / keyint_min=23 / scenecut=40 / intra_refresh=0 / rc_lookahead=50 / rc=crf / mbtree=1 / crf=18.0 / qcomp=0.60 / qpmin=0 / qpmax=69 / qpstep=4 / ip_ratio=1.40 / aq=1:1.00
Default : Yes
Forced : No
Color range : Limited
Matrix coefficients : BT.709

Audio
ID : 2
Format : AC-3
Format/Info : Audio Coding 3
Mode extension : CM (complete main)
Format settings, Endianness : Big
Codec ID : A_AC3
Duration : 49mn 16s
Bit rate mode : Constant
Bit rate : 384 Kbps
Channel(s) : 6 channels
Channel positions : Front: L C R, Side: L R, LFE
Sampling rate : 48.0 KHz
Frame rate : 31.250 fps (1536 spf)
Compression mode : Lossy
Stream size : 135 MiB (18%)
Default : Yes
Forced : No

Related Torrents

torrent name size files age seed leech

Sharing Widget


Download torrent
738.27 MB
seeders:564
leechers:15
Penny Dreadful S03E06 720p HDTV x264-AVS[rartv]



To share this torrent use the code below and insert it into comments, status messages, forum posts or your signature.

Torrent: Penny Dreadful S03E06 720p HDTV x264-AVS[rartv]

Trackers

tracker name
udp://tracker.openbittorrent.com:80/announce
udp://tracker.publicbt.com:80/announce
udp://tracker.coppersurfer.tk:6969/announce
udp://9.rarbg.me:2710/announce
udp://glotorrents.pw:6969/announce
http://tracker.trackerfix.com/announce
udp://9.rarbg.to:2710/announce
udp://tracker.opentrackr.org:1337/announce
µTorrent compatible trackers list

Locations

name
KickassTorrents
Torrent hash: 44657D2F2EA6B086961B20F9DE87D95F7BC6FF56

Top Comments

2
Gedor3641
audio: 9video: 9
Thanks Zone321
thumb_up

All Comments

audio
9/10
video
9/10
please, leave only comments related to that torrent
Sign In

audio: 9video: 9
Thank u!
audio: 9video: 9
Thanks!!
audio: 9video: 9
z0n321 does it again, loving your work. Thanks.
audio: 9video: 9
Thanks chuckle
audio: 9video: 8
Great, thanks a lot
audio: 9video: 9
Thanks UL
Thank You GreaT upload Sharing is Caring
audio: 9video: 9
Thank You GreaT upload Sharing is Caring
Show More All

User Opinions

Drwyrd4582, rlcwallpapers3348, Yorick_6662527, killy691332, viktor10101118, nik01307, skg381828110, spacelab91, olik36, bitsian24 ... And 1243 more
LumiL1231514, konima676, sallooO489, gianang478, Nailot37, gilberto197513
Report a bug Open chat