Mr Robot S02E00 dec0d3d doc 720p HDTV x264-BATV[rartv]

seeders: 820
leechers: 34
updated:
Added by z0n3212.56M in TV
Torrent verified. Downloaded 42,847 times.

  • View all Mr. Robot episodes
  • Season: Full 2nd season
  • IMDb link: 4158110
  • TVmaze link: Mr. Robot
  • Original run: 24 June 2015 — Present
  • Summary:

    Mr. Robot follows a mysterious anarchist who recruits a young computer programmer, Elliot (Malek), who suffers from an anti-social disorder and connects to people by hacking them.
    Elliot finds himself in the intersection between a cybersecurity firm he works for, his hacking exploits at night, and the underworld hacking organization trying to recruit him to help bring down the 1 percent.

    Written by Rocky_45121.65K
Available in versions: 1080p720p480pHDTVWEBRipx264x265
Mr Robot S02E00 dec0d3d doc 720p HDTV x264-BATV[rartv] (Size: 922.62 MB)
  Mr.Robot.S02E00.dec0d3d.doc.720p.HDTV.x264-BATV.mkv 922.62 MB
  rarbg.com.txt 34 bytes
  Mr.Robot.S02E00.dec0d3d.doc.720p.HDTV.x264-BATV.nfo 4.17 KB

Description

https://rarbg.to
Mr.Robot.S02E00.dec0d3d.doc.720p.HDTV.x264-BATV[rartv]

Mr. Robot Decoded shares some of the events of Season 1 and takes a look at what’s coming in Season 2. Featuring commentary and interviews with Mr. Robot creator Sam Esmail and cast members Rami Malek, Christian Slater, Portia Doubleday, and Carly Chaikin, there’s also a discussion about whether hackers can change the world and, if so, should they?

Interviewees also include Lance James (Chief Scientist, Flashpoint), Fred Kaplan (Author of Dark Territory: The Secret History Of Cyber War), Network Security Expert Peiter C. Zatko, actor Zachary Levi, as well as other writers, journalists, filmmakers, and high-profile experts.

image



Screens :

image



Mediainfo :

Video
ID : 1
Format : AVC
Format/Info : Advanced Video Codec
Format profile : [email protected]
Format settings, CABAC : Yes
Format settings, ReFrames : 5 frames
Codec ID : V_MPEG4/ISO/AVC
Duration : 39mn 23s
Bit rate : 3 017 Kbps
Width : 1 280 pixels
Height : 720 pixels
Display aspect ratio : 16:9
Frame rate mode : Constant
Frame rate : 23.976 (24000/1001) fps
Color space : YUV
Chroma subsampling : 4:2:0
Bit depth : 8 bits
Scan type : Progressive
Bits/(Pixel*Frame) : 0.137
Stream size : 850 MiB (92%)
Writing library : x264 core 148 r2694 3b70645
Encoding settings : cabac=1 / ref=5 / deblock=1:0:0 / analyse=0x3:0x113 / me=umh / subme=8 / psy=1 / psy_rd=1.00:0.00 / mixed_ref=1 / me_range=16 / chroma_me=1 / trellis=1 / 8x8dct=1 / cqm=0 / deadzone=21,11 / fast_pskip=1 / chroma_qp_offset=-2 / threads=22 / lookahead_threads=3 / sliced_threads=0 / nr=0 / decimate=1 / interlaced=0 / bluray_compat=0 / constrained_intra=0 / bframes=3 / b_pyramid=2 / b_adapt=2 / b_bias=0 / direct=3 / weightb=1 / open_gop=0 / weightp=2 / keyint=250 / keyint_min=23 / scenecut=40 / intra_refresh=0 / rc_lookahead=50 / rc=crf / mbtree=1 / crf=18.0 / qcomp=0.60 / qpmin=0 / qpmax=69 / qpstep=4 / ip_ratio=1.40 / aq=1:1.00
Default : Yes
Forced : No
Color range : Limited
Matrix coefficients : BT.709

Audio
ID : 2
Format : AC-3
Format/Info : Audio Coding 3
Format profile : Dolby Digital
Mode extension : CM (complete main)
Format settings, Endianness : Big
Codec ID : A_AC3
Duration : 39mn 23s
Bit rate mode : Constant
Bit rate : 192 Kbps
Channel(s) : 2 channels
Channel positions : Front: L R
Sampling rate : 48.0 KHz
Frame rate : 31.250 fps (1536 spf)
Compression mode : Lossy
Stream size : 54.1 MiB (6%)
Default : Yes
Forced : No




Related Torrents

torrent name size files age seed leech

Sharing Widget


Download torrent
922.62 MB
seeders:769
leechers:16
Mr Robot S02E00 dec0d3d doc 720p HDTV x264-BATV[rartv]



To share this torrent use the code below and insert it into comments, status messages, forum posts or your signature.

Torrent: Mr Robot S02E00 dec0d3d doc 720p HDTV x264-BATV[rartv]

Trackers

tracker name
udp://tracker.openbittorrent.com:80/announce
udp://tracker.publicbt.com:80/announce
udp://tracker.coppersurfer.tk:6969/announce
udp://9.rarbg.me:2710/announce
udp://p4p.arenabg.com:1337/announce
http://tracker.trackerfix.com/announce
udp://9.rarbg.to:2710/announce
udp://tracker.opentrackr.org:1337/announce
µTorrent compatible trackers list

Locations

name
KickassTorrents
Torrent hash: 604FC4A527A55B2BA4C62FCFC91BACBA2747A69F

Top Comments

164
Ghost_Zero382
"Mr. Robot_dec0d3d.doc" is a forty minute review of season one sprinkled with repeated promises of sneak peaks of season two. Other award-winning features include; an award-winning assurance that this award-winning series is all entirely plausible and definitely not science fiction and actually predicted the future (paid experts), perfectly normal people can watch this show too - it's not just for geeks (contracted cast) and all the technical stuff on screen is entirely accurate (grinning tech guy).

But stay tuned, coming up; it's not our opinion that you should definitely put tape over your laptop camera, but our cast do! Matthew Broderick was good in Wargames (1983). You should be terrified of hackers because they are disconnected from the normal world, they wear three different colours of hat and they have super-powers capable of destroying the Earth.

Anyway if you've come here for season two leaks save yourself forty minutes with this handy copy+paste from the transcript:

77
BrodyH87
ahhh hell almost got excited lol
55
Erik201193
Since it's S02E00, I'm guessing this is just a recap of season one with maybe a preview of season 2. (and probably some interviews with members of the cast)Season 2 starts July 13th

Last edited by Erik20, 2 weeks ago

51
treehuggincow4298
audio: 9video: 9
damn got excited for half a second.

All Comments

audio
9/10
video
9/10
please, leave only comments related to that torrent
Sign In

audio: 10video: 10
Thanks man! Can't wait it to start! thumb_up
This video is blocked on Youtube for other countries. Thank you for this.
audio: 8video: 8
not need to Download , watch on Youtube .
Thank-you very much for the upload z0n321 - excellent series...
audio: 9video: 9
Thanks!!!
audio: 10video: 10
Hell yeah good as
Show More All

User Opinions

rlcwallpapers3348, Morpheu52422, sirknz1168, luckyjenn891, gumnaam879, bunny2534813, general714631, sammyk487, Kira Kiralina365, nik01307 ... And 925 more
M_o_0_N1729, DarthBowlen1123, Ejustice789, pelebroiass747, sokahl708, A_ParadoX458, rogueshadowx209, TETANOzzzz195, chrmapp49, ajmay8 ... And 17 more
Report a bug Open chat