Keeping Up With the Kardashians S12E10 Iced Out HDTV x264-CRiMSON[rartv]

seeders: 1669
leechers: 90
updated:
Added by z0n3212.57M in TV
Torrent verified. Downloaded 40,365 times.

Available in versions: 1080p720pHDTVWEBRipx264
Keeping Up With the Kardashians S12E10 Iced Out HDTV x264-CRiMSON[rartv] (Size: 344.53 MB)
  Keeping.Up.With.the.Kardashians.S12E10.Iced.Out.HDTV.x264-CRiMSON.mkv 344.53 MB
  rarbg.com.txt 34 bytes
  Keeping.Up.With.the.Kardashians.S12E10.Iced.Out.HDTV.x264-CRiMSON.nfo 799 bytes

Description


https://rarbg.to
Keeping.Up.With.the.Kardashians.S12E10.Iced.Out.HDTV.x264-CRiMSON[rartv]

image
Screens :

image
Mediainfo :

Video
ID : 1
Format : AVC
Format/Info : Advanced Video Codec
Format profile : [email protected]
Format settings, CABAC : Yes
Format settings, ReFrames : 5 frames
Codec ID : V_MPEG4/ISO/AVC
Duration : 42mn 28s
Bit rate : 1 020 Kbps
Width : 720 pixels
Height : 404 pixels
Display aspect ratio : 16:9
Frame rate mode : Constant
Frame rate : 29.970 (30000/1001) fps
Color space : YUV
Chroma subsampling : 4:2:0
Bit depth : 8 bits
Scan type : Progressive
Bits/(Pixel*Frame) : 0.117
Stream size : 310 MiB (90%)
Writing library : x264 core 148 r2705 3f5ed56
Encoding settings : cabac=1 / ref=5 / deblock=1:0:0 / analyse=0x3:0x113 / me=umh / subme=8 / psy=1 / psy_rd=1.00:0.15 / mixed_ref=1 / me_range=16 / chroma_me=1 / trellis=1 / 8x8dct=1 / cqm=0 / deadzone=21,11 / fast_pskip=1 / chroma_qp_offset=-3 / threads=12 / lookahead_threads=2 / sliced_threads=0 / nr=0 / decimate=1 / interlaced=0 / bluray_compat=0 / constrained_intra=0 / bframes=3 / b_pyramid=2 / b_adapt=2 / b_bias=0 / direct=3 / weightb=1 / open_gop=0 / weightp=2 / keyint=300 / keyint_min=29 / scenecut=40 / intra_refresh=0 / rc_lookahead=50 / rc=crf / mbtree=1 / crf=21.0 / qcomp=0.60 / qpmin=0 / qpmax=69 / qpstep=4 / ip_ratio=1.40 / aq=1:1.00
Language : English
Default : Yes
Forced : No
Color range : Limited
Matrix coefficients : BT.709

Audio
ID : 2
Format : AAC
Format/Info : Advanced Audio Codec
Format profile : LC
Codec ID : A_AAC
Duration : 42mn 28s
Bit rate : 112 Kbps
Channel(s) : 2 channels
Channel positions : Front: L R
Sampling rate : 48.0 KHz
Frame rate : 46.875 fps (1024 spf)
Compression mode : Lossy
Delay relative to video : 9ms
Stream size : 34.0 MiB (10%)
Default : Yes
Forced : No

Related Torrents

torrent name size files age seed leech

Sharing Widget


Download torrent
344.53 MB
seeders:1587
leechers:91
Keeping Up With the Kardashians S12E10 Iced Out HDTV x264-CRiMSON[rartv]



To share this torrent use the code below and insert it into comments, status messages, forum posts or your signature.

Torrent: Keeping Up With the Kardashi...Out HDTV x264-CRiMSON[rartv]

Trackers

tracker name
udp://tracker.openbittorrent.com:80/announce
udp://tracker.publicbt.com:80/announce
udp://tracker.coppersurfer.tk:6969/announce
udp://9.rarbg.me:2710/announce
udp://p4p.arenabg.com:1337/announce
http://tracker.trackerfix.com/announce
udp://9.rarbg.to:2710/announce
udp://tracker.opentrackr.org:1337/announce
µTorrent compatible trackers list

Locations

name
KickassTorrents
Torrent hash: ECF710307734CEC5E9F17D22501CB335BD91E51D

All Comments

audio
9/10
video
9/10
please, leave only comments related to that torrent
Sign In

audio: 10video: 10
Thank you so bloody much, LOVE THIS SHOW!
audio: 10video: 10
thanks!
thank you for the upload
audio: 7video: 9
Show is out of sync for the last five minutes.

Great torrent.
audio: 10video: 10
Perfect Quality Thanks ... thumb_up
audio: 10video: 10
THANK-YOUthumb_up
audio: 10video: 10
TYVM :)
Show More All

User Opinions

sookie10047.01K, thecookiejar22.4K, meder894715, makingwavs4525, dynamic732768, Ziminy2544, FToem1113, PiniPona828, GRCracker567, AsapTargaryen31 ... And 159 more
abriscaru3627, superkane1930, DoomedMayhem1225, mushosha752, b0bbie612, MaxieBoi525, Homealone316181, diazjoaquin137, DMCA21220
Report a bug Open chat