House of Cards S04 E01-13 1080p HDTV Russian / English DD5 1 x264-CasStudio

seeders: 161
leechers: 56
updated:
Added by Z_akharyan11.6K in TV
Torrent verified. Downloaded 19,712 times.

House of Cards S04 E01-13 1080p HDTV Russian / English DD5 1 x264-CasStudio (Size: 25.88 GB)
  House.of.Cards.S04E01.1080p.HDTV.DD5.1.x264-CasStudio.mkv 1.98 GB
  House.of.Cards.S04E02.1080p.HDTV.DD5.1.x264-CasStudio.mkv 1.7 GB
  House.of.Cards.S04E03.1080p.HDTV.DD5.1.x264-CasStudio.mkv 2.2 GB
  House.of.Cards.S04E04.1080p.HDTV.DD5.1.x264-CasStudio.mkv 1.73 GB
  House.of.Cards.S04E05.1080p.HDTV.DD5.1.x264-CasStudio.mkv 1.94 GB
  House.of.Cards.S04E06.1080p.HDTV.DD5.1.x264-CasStudio.mkv 1.93 GB
  House.of.Cards.S04E07.1080p.HDTV.DD5.1.x264-CasStudio.mkv 2.11 GB
  House.of.Cards.S04E08.1080p.HDTV.DD5.1.x264-CasStudio.mkv 1.88 GB
  House.of.Cards.S04E09.1080p.HDTV.DD5.1.x264-CasStudio.mkv 1.88 GB
  House.of.Cards.S04E10.1080p.HDTV.DD5.1.x264-CasStudio.mkv 2.3 GB
  House.of.Cards.S04E11.1080p.HDTV.DD5.1.x264-CasStudio.mkv 2.1 GB
  House.of.Cards.S04E12.1080p.HDTV.DD5.1.x264-CasStudio.mkv 1.89 GB
  House.of.Cards.S04E13.1080p.HDTV.DD5.1.x264-CasStudio.mkv 2.24 GB

Description


 


Video
ID : 1
Format : AVC
Format/Info : Advanced Video Codec
Format profile : [email protected]
Format settings, CABAC : Yes
Format settings, ReFrames : 4 frames
Codec ID : V_MPEG4/ISO/AVC
Duration : 40mn 50s
Bit rate : 5 000 Kbps
Width : 1 920 pixels
Height : 1 080 pixels
Display aspect ratio : 16:9
Frame rate mode : Constant
Frame rate : 25.000 fps
Color space : YUV
Chroma subsampling : 4:2:0
Bit depth : 8 bits
Scan type : Progressive
Bits/(Pixel*Frame) : 0.096
Stream size : 1.41 GiB (83%)
Writing library : x264 core 142 r2491 24e4fed
Encoding settings : cabac=1 / ref=3 / deblock=1:1:-1 / analyse=0x3:0x133 / me=umh / subme=9 / psy=1 / psy_rd=1.00:0.00 / mixed_ref=1 / me_range=48 / chroma_me=1 / trellis=2 / 8x8dct=1 / cqm=0 / deadzone=21,11 / fast_pskip=0 / chroma_qp_offset=-2 / threads=48 / lookahead_threads=5 / sliced_threads=0 / slices=4 / nr=0 / decimate=1 / interlaced=0 / bluray_compat=0 / constrained_intra=0 / bframes=6 / b_pyramid=2 / b_adapt=2 / b_bias=0 / direct=3 / weightb=1 / open_gop=0 / weightp=2 / keyint=250 / keyint_min=22 / scenecut=40 / intra_refresh=0 / rc_lookahead=50 / rc=2pass / mbtree=1 / bitrate=5000 / ratetol=1.0 / qcomp=0.70 / qpmin=10 / qpmax=49 / qpstep=4 / cplxblur=20.0 / qblur=0.5 / vbv_maxrate=9000 / vbv_bufsize=2500 / nal_hrd=none / filler=0 / ip_ratio=1.40 / aq=1:1.00
Language : English
Default : Yes
Forced : No

Audio #1
ID : 2
Format : AC-3
Format/Info : Audio Coding 3
Mode extension : CM (complete main)
Format settings, Endianness : Big
Codec ID : A_AC3
Duration : 40mn 50s
Bit rate mode : Constant
Bit rate : 640 Kbps
Channel(s) : 6 channels
Channel positions : Front: L C R, Side: L R, LFE
Sampling rate : 48.0 KHz
Frame rate : 31.250 fps (1536 spf)
Compression mode : Lossy
Stream size : 187 MiB (11%)
Language : Russian
Default : Yes
Forced : No

Audio #2
ID : 3
Format : AC-3
Format/Info : Audio Coding 3
Mode extension : CM (complete main)
Format settings, Endianness : Big
Codec ID : A_AC3
Duration : 40mn 50s
Bit rate mode : Constant
Bit rate : 384 Kbps
Channel(s) : 6 channels
Channel positions : Front: L C R, Side: L R, LFE
Sampling rate : 48.0 KHz
Frame rate : 31.250 fps (1536 spf)
Compression mode : Lossy
Stream size : 112 MiB (6%)
Language : English
Default : No
Forced : No

Text #1
ID : 4
Format : UTF-8
Codec ID : S_TEXT/UTF8
Codec ID/Info : UTF-8 Plain Text
Duration : 37mn 48s
Bit rate : 134 bps
Count of elements : 586
Stream size : 37.4 KiB (0%)
Title : Full
Language : Russian
Default : No
Forced : No

Text #2
ID : 5
Format : UTF-8
Codec ID : S_TEXT/UTF8
Codec ID/Info : UTF-8 Plain Text
Duration : 36mn 44s
Bit rate : 90 bps
Count of elements : 621
Stream size : 24.4 KiB (0%)
Title : CC
Language : English
Default : No
Forced : No

Sharing Widget


Download torrent
25.88 GB
seeders:188
leechers:74
House of Cards S04 E01-13 1080p HDTV Russian / English DD5 1 x264-CasStudio



To share this torrent use the code below and insert it into comments, status messages, forum posts or your signature.

Torrent: House of Cards S04 E01-13 10...English DD5 1 x264-CasStudio

Trackers

tracker name
udp://tracker.openbittorrent.com:80/announce
udp://tracker.publicbt.com:80/announce
http://pubt.net:2710/announce
udp://tracker.coppersurfer.tk:6969/announce
udp://glotorrents.pw:6969/announce
http://retracker.local/announce
http://bt3.rutracker.cc/announce
udp://tracker.opentrackr.org:1337/announce
http://xbtrutor.com:2710/announce
µTorrent compatible trackers list

Locations

name
KickassTorrents
Torrent hash: FAC1D7C971F8E0C4235597C484504412046DC029

Top Comments

11
Rabalder737
audio: 5video: 9
Pity you have downgraded the english audio. I'll will wait for proper uploads instead.
3
anonymous
thankyou!!!@!@!!

All Comments

audio
9/10
video
9/10
please, leave only comments related to that torrent
Sign In

User Opinions

michikoka5642, MochaLove5135, TBFG480, Tatiashia288, tpalexk285, cmanpaok!261, markoraf137, riaaneloff65, Poolzer60, cldeth30 ... And 98 more
vinky09991586, adamj089579, palarin162, Gilmen109, Nazin0017
Report a bug Open chat