Game of Thrones S06E10 The Winds of Winter REPACK WEB-DL DD5 1 H264-LoTV[rartv]

Removed by the request of copyright owner and not available for download, 3 days ago

Added by z0n3212.57M in TV
Torrent verified. Downloaded 17,303 times.

  • View all Game of Thrones episodes
  • Episode title: The Winds of Winter
  • Episode: S06E10
  • Air date: 26 June 2016
  • IMDb link: 0944947
  • TVmaze link: Game of Thrones
  • Original run: 05 December 2010 — Present
  • Summary:

    Seven noble families fight for control of the mythical land of Westeros. Friction between the houses leads to full-scale war. All while a very ancient evil awakens in the farthest north. Amidst the war, a neglected military order of misfits, the Night's Watch, is all that stands between the realms of men and the icy horrors beyond.

    Written by CGUploader2044
Available in versions: 1080p720p480pHDTVWEBRipx264x265
Game of Thrones S06E10 The Winds of Winter REPACK WEB-DL DD5 1 H264-LoTV[rartv] (Size: 865.46 MB)
  Game.of.Thrones.S06E10.The.Winds.of.Winter.REPACK.480p.WEB-DL.DD5.1.H.264-LoTV.mkv 865.41 MB
  Game.of.Thrones.S06E10.The.Winds.of.Winter.REPACK.480p.WEB-DL.DD5.1.H.264-LoTV.srt 52.24 KB
  rarbg.com.txt 34 bytes

Description


https://rarbg.to
Game.of.Thrones.S06E10.The.Winds.of.Winter.REPACK.WEB-DL.DD5.1.H264-LoTV[rartv]

image
Screens :

image
Mediainfo :

Video
ID : 1
Format : AVC
Format/Info : Advanced Video Codec
Format profile : [email protected]
Format settings, CABAC : No
Format settings, ReFrames : 1 frame
Codec ID : V_MPEG4/ISO/AVC
Duration : 1h 7mn
Bit rate : 1 394 Kbps
Width : 640 pixels
Height : 478 pixels
Display aspect ratio : 16:9
Frame rate mode : Constant
Frame rate : 23.976 (23976/1000) fps
Color space : YUV
Chroma subsampling : 4:2:0
Bit depth : 8 bits
Scan type : Progressive
Bits/(Pixel*Frame) : 0.190
Stream size : 678 MiB (78%)
Language : English
Default : Yes
Forced : No
Color range : Limited
Color primaries : BT.601 NTSC
Transfer characteristics : BT.709
Matrix coefficients : BT.601

Audio
ID : 2
Format : AC-3
Format/Info : Audio Coding 3
Mode extension : CM (complete main)
Format settings, Endianness : Big
Codec ID : A_AC3
Duration : 1h 7mn
Bit rate mode : Constant
Bit rate : 384 Kbps
Channel(s) : 6 channels
Channel positions : Front: L C R, Side: L R, LFE
Sampling rate : 48.0 KHz
Frame rate : 31.250 fps (1536 spf)
Compression mode : Lossy
Stream size : 187 MiB (22%)
Language : English
Default : Yes
Forced : No

Text
ID : 3
Format : UTF-8
Codec ID : S_TEXT/UTF8
Codec ID/Info : UTF-8 Plain Text
Duration : 1h 6mn
Bit rate : 58 bps
Count of elements : 695
Stream size : 28.3 KiB (0%)
Language : English
Default : No
Forced : No

Trackers

tracker name
udp://tracker.openbittorrent.com:80/announce
udp://tracker.publicbt.com:80/announce
udp://9.rarbg.me:2710/announce
http://tracker.trackerfix.com:80/announce
udp://9.rarbg.to:2710/announce
udp://tracker.opentrackr.org:1337/announce
µTorrent compatible trackers list

Locations

name
KickassTorrents
Torrent hash: FC27CAAC7DEE5B15E234CBE5A24D85DA498F6933

Top Comments

2
4chanfiles123
audio: 7video: 4
for a 800MB torrent, the videoquality is pretty shit.
doesn't say 480p in the title of the torrent, only in the filename. pretty misleading

All Comments

audio
8/10
video
7/10
please, leave only comments related to that torrent
Sign In

audio: 10video: 10
Thanks for the upload!!!rockcoolpirate
audio: 8video: 8
brill, thank you!
This torrent is being watched by HBO. Received a call about it from my ISP this morning.
audio: 5video: 1
Video isn't clear enough.
audio: 9video: 8
thanks!!
audio: 8video: 8
Thanks!
No audio! Can't find any videos with video and audio!
Show More All

User Opinions

Chronic_91214K, erray1252349, jvinkle1805, Cees00061025, humpty1111014, x35fighter867, MTB112419, amandan164, musluk_suyu159, gonjaman34104 ... And 80 more
DavePalmer795, neongg148, Settler1120, darthdkn8
Report a bug Open chat