Free State of Jones 2016 English - CAMRip - x264 - Zi$t-CTRC

seeders: 83
leechers: 46
updated:
Added by Zist3133260 in Movies
Torrent verified. Downloaded 99 times.

Summary:

Set during the Civil War, Newton Knight defects from the Confederate Army, bands together with a group of like-minded soldiers, and set out to form their own State known as the Free State Of Jones.

Written by Rocky_45122.56K
Available in versions: Cam
Free State of Jones 2016 English - CAMRip - x264 - Zi$t-CTRC (Size: 637.03 MB)
  CTRC info.txt 433 bytes
  Free State of Jones 2016 English - CAMRip - x264 - Zi$t-CTRC.mp4 637.03 MB

Description

image


image


image


image image image image image image image


image



General
Complete name : Free State of Jones 2016 English
Format : MPEG-4
Format profile : Base Media / Version 2
Codec ID : mp42
File size : 637 MiB
Duration : 2h 15mn
Overall bit rate mode : Variable
Overall bit rate : 657 Kbps
Movie name : Free State of Jones 2016 English - CAMRip - x264 - Zi$t-CTRC

Video
ID : 1
Format : AVC
Format/Info : Advanced Video Codec
Format profile : [email protected]
Format settings, CABAC : Yes
Format settings, ReFrames : 4 frames
Codec ID : avc1
Codec ID/Info : Advanced Video Coding
Duration : 2h 15mn
Bit rate : 454 Kbps
Width : 720 pixels
Height : 392 pixels
Display aspect ratio : 1.85:1
Original display aspect rat : 1.85:1
Frame rate mode : Variable
Frame rate : 23.976 fps
Minimum frame rate : 11.987 fps
Maximum frame rate : 24.000 fps
Color space : YUV
Chroma subsampling : 4:2:0
Bit depth : 8 bits
Scan type : Progressive
Bits/(Pixel*Frame) : 0.067
Stream size : 440 MiB (69%)
Color range : Limited
Color primaries : BT.601 NTSC
Transfer characteristics : BT.709
Matrix coefficients : BT.601

Audio
ID : 2
Format : AAC
Format/Info : Advanced Audio Codec
Format profile : LC
Codec ID : 40
Duration : 2h 15mn
Bit rate mode : Variable
Bit rate : 196 Kbps
Channel(s) : 2 channels
Channel positions : Front: L R
Sampling rate : 48.0 KHz
Compression mode : Lossy
Stream size : 190 MiB (30%)
Language : English


image

Sharing Widget


Download torrent
637.03 MB
seeders:100
leechers:45
Free State of Jones 2016 English - CAMRip - x264 - Zi$t-CTRC



To share this torrent use the code below and insert it into comments, status messages, forum posts or your signature.

Torrent: Free State of Jones 2016 English - CAMRip - x264 - Zi$t-CTRC

Trackers

tracker name
http://pow7.com/announce
udp://tracker.openbittorrent.com:80/announce
udp://tracker.coppersurfer.tk:6969/announce
udp://tracker.leechers-paradise.org:6969/announce
udp://p4p.arenabg.com:1337/announce
http://tracker.tfile.me/announce
http://www.wareztorrent.com/announce
udp://tracker.aletorrenty.pl:2710/announce
udp://tracker.opentrackr.org:1337/announce
udp://tracker.eddie4.nl:6969/announce
ĀµTorrent compatible trackers list

Locations

name
KickassTorrents
ExtraTorrent
Torrent hash: F555C0D1869E6DA40F4D53BE5C9DC117D3F1DCD8

All Comments

audio
0/10
video
0/10
please, leave only comments related to that torrent
Sign In


User Opinions

Alex_Kid57.97K, Belegatu12.2K, spacepuppy2008, 4ppm4n1196, rathanakh2
Report a bug Open chat