Free State Of Jones 2016 CAM x264

seeders: 539
leechers: 470
updated:
Added by SaM456.86K in Movies
Torrent verified. Downloaded 444 times.

Summary:

Set during the Civil War, Newton Knight defects from the Confederate Army, bands together with a group of like-minded soldiers, and set out to form their own State known as the Free State Of Jones.

Written by Rocky_45122.54K
Available in versions: Cam
Free State Of Jones 2016 CAM x264 (Size: 1.05 GB)
  FREE_STATE_OF_JONES..mp4 1.05 GB

Description

A disillusioned Confederate army deserter returns to Mississippi and leads a militia of fellow deserters, runaway slaves, and women in an uprising against the corrupt local Confederate government.

Screenshots
Click to enlarge
image image image image
image

Format : MPEG-4
Format profile : Base Media / Version 2
Codec ID : mp42
File size : 1.05 GiB
Duration : 2h 15mn
Overall bit rate mode : Variable
Overall bit rate : 1 114 Kbps
Movie name : FREE_STATE_OF_JONES.Title4
Album : FREE_STATE_OF_JONES
Encoded date : UTC 2016-07-19 01:02:12
Tagged date : UTC 2016-07-19 01:35:19
Writing application : DVDFab
covr : Unknown kind of value!

Video
ID : 1
Format : AVC
Format/Info : Advanced Video Codec
Format profile : [email protected]
Format settings, CABAC : Yes
Format settings, ReFrames : 1 frame
Format settings, GOP : M=1, N=24
Codec ID : avc1
Codec ID/Info : Advanced Video Coding
Duration : 2h 15mn
Source duration : 2h 15mn
Bit rate : 1 009 Kbps
Width : 720 pixels
Height : 392 pixels
Display aspect ratio : 1.85:1
Frame rate mode : Constant
Frame rate : 23.976 fps
Color space : YUV
Chroma subsampling : 4:2:0
Bit depth : 8 bits
Scan type : Progressive
Bits/(Pixel*Frame) : 0.149
Stream size : 978 MiB (91%)
Source stream size : 978 MiB (91%)
Writing library : x264 core
Encoded date : UTC 2016-07-19 01:02:12
Tagged date : UTC 2016-07-19 01:35:15
Color primaries : BT.601 NTSC
Transfer characteristics : BT.709
Matrix coefficients : BT.601
Color range : Limited

Audio
ID : 2
Format : AAC
Format/Info : Advanced Audio Codec
Format profile : LC
Codec ID : 40
Duration : 2h 15mn
Bit rate mode : Variable
Bit rate : 99.7 Kbps
Maximum bit rate : 162 Kbps
Channel(s) : 2 channels
Channel positions : Front: L R
Sampling rate : 48.0 KHz
Compression mode : Lossy
Stream size : 96.7 MiB (9%)
Title : English (aac 2.0)
Language : English
Encoded date : UTC 2016-07-19 01:02:12
Tagged date : UTC 2016-07-19 01:34:56

Menu
ID : 3
Codec ID : text
Duration : 2h 15mn
Encoded date : UTC 2016-07-19 01:02:12
Tagged date : UTC 2016-07-19 01:35:19
Source duration : 8129955
Source frame count : 31
Source stream size : 735
Frame count : 31
Stream size : 735
00:00:00.000 : Chapter 1
00:04:29.018 : Chapter 2
00:08:58.037 : Chapter 3
00:13:28.015 : Chapter 4
00:17:57.034 : Chapter 5
00:22:27.012 : Chapter 6
00:26:56.030 : Chapter 7
00:31:26.008 : Chapter 8
00:35:55.027 : Chapter 9
00:40:25.005 : Chapter 10
00:44:54.024 : Chapter 11
00:49:24.002 : Chapter 12
00:53:53.021 : Chapter 13
00:58:22.039 : Chapter 14
01:02:52.018 : Chapter 15
01:07:21.036 : Chapter 16
01:11:51.014 : Chapter 17
01:16:20.033 : Chapter 18
01:20:50.011 : Chapter 19
01:25:19.030 : Chapter 20
01:29:49.008 : Chapter 21
01:34:18.027 : Chapter 22
01:38:48.005 : Chapter 23
01:43:17.023 : Chapter 24
01:47:47.001 : Chapter 25
01:52:16.020 : Chapter 26
01:56:45.039 : Chapter 27
02:01:15.017 : Chapter 28
02:05:44.036 : Chapter 29
02:10:14.014 : Chapter 30
02:14:43.032 : Chapter 31
Bit rate mode : VBR

Related Torrents

torrent name size files age seed leech

Sharing Widget


Download torrent
1.05 GB
seeders:254
leechers:248
Free State Of Jones 2016 CAM x264



To share this torrent use the code below and insert it into comments, status messages, forum posts or your signature.

Torrent: Free State Of Jones 2016 CAM x264

Trackers

tracker name
udp://tracker.openbittorrent.com:80/announce
udp://tracker.publicbt.com:80/announce
udp://tracker.coppersurfer.tk:6969/announce
udp://p4p.arenabg.com:1337/announce
udp://tracker.ccc.de:80/announce
udp://tracker.opentrackr.org:1337/announce
ĀµTorrent compatible trackers list

Locations

name
KickassTorrents
ExtraTorrent
ExtraTorrent
Torrent hash: DACF3C7F96804932144238057A0C97242C55EB2E

All Comments

audio
0/10
video
0/10
please, leave only comments related to that torrent
Sign In

User Opinions

Alex_Kid57.97K, 4ppm4n1195, bright631
Report a bug Open chat