Containment S01E12 720p HDTV X264-DIMENSION[rartv]

seeders: 129
leechers: 13
updated:
Added by z0n3212.58M in TV
Torrent verified. Downloaded 7,274 times.

  • View all Containment episodes
  • Episode title: Yes Is the Only Living Thing
  • Episode: S01E12
  • Air date: 12 July 2016
  • IMDb link: 4421578
  • TVmaze link: Containment
  • Original run: 01 January 2016 — Present
  • Summary:

    The series follows an epidemic that breaks out in Atlanta, leaving the large city quarantined and those stuck on the inside fighting for their lives. The drama tells the story of loved ones torn apart, and how the society that grows inside the cordon reveals both the devolution of humanity and the birth of unlikely heroes.

    Written by Rocky_45122.2K
Available in versions: 1080p720p480pHDTVWEBRipx264x265
Containment S01E12 720p HDTV X264-DIMENSION[rartv] (Size: 801.39 MB)
  Containment.S01E12.720p.HDTV.X264-DIMENSION.mkv 801.39 MB
  rarbg.com.txt 34 bytes
  containment.112.720p-dimension.nfo 566 bytes

Description


https://rarbg.to
Containment.S01E12.720p.HDTV.X264-DIMENSION[rartv]

image
Screens :

image
Mediainfo :

Video
ID : 1
Format : AVC
Format/Info : Advanced Video Codec
Format profile : [email protected]
Format settings, CABAC : Yes
Format settings, ReFrames : 9 frames
Codec ID : V_MPEG4/ISO/AVC
Duration : 42mn 22s
Bit rate : 2 259 Kbps
Width : 1 280 pixels
Height : 720 pixels
Display aspect ratio : 16:9
Frame rate mode : Constant
Frame rate : 23.976 (24000/1001) fps
Color space : YUV
Chroma subsampling : 4:2:0
Bit depth : 8 bits
Scan type : Progressive
Bits/(Pixel*Frame) : 0.102
Stream size : 684 MiB (85%)
Writing library : x264 core 148 r2705 3f5ed56
Encoding settings : cabac=1 / ref=9 / deblock=1:-2:-2 / analyse=0x3:0x133 / me=umh / subme=10 / psy=1 / psy_rd=1.00:0.00 / mixed_ref=1 / me_range=32 / chroma_me=1 / trellis=2 / 8x8dct=1 / cqm=0 / deadzone=21,11 / fast_pskip=0 / chroma_qp_offset=-2 / threads=16 / lookahead_threads=1 / sliced_threads=0 / nr=0 / decimate=1 / interlaced=0 / bluray_compat=0 / constrained_intra=0 / bframes=5 / b_pyramid=2 / b_adapt=2 / b_bias=0 / direct=3 / weightb=1 / open_gop=0 / weightp=2 / keyint=250 / keyint_min=23 / scenecut=40 / intra_refresh=0 / rc_lookahead=60 / rc=crf / mbtree=1 / crf=18.0 / qcomp=0.60 / qpmin=0 / qpmax=69 / qpstep=4 / ip_ratio=1.40 / aq=1:1.00
Language : English
Default : Yes
Forced : No
Color range : Limited
Matrix coefficients : BT.709

Audio
ID : 2
Format : AC-3
Format/Info : Audio Coding 3
Mode extension : CM (complete main)
Format settings, Endianness : Big
Codec ID : A_AC3
Duration : 42mn 22s
Bit rate mode : Constant
Bit rate : 384 Kbps
Channel(s) : 6 channels
Channel positions : Front: L C R, Side: L R, LFE
Sampling rate : 48.0 KHz
Frame rate : 31.250 fps (1536 spf)
Compression mode : Lossy
Stream size : 116 MiB (15%)
Default : Yes
Forced : No

Related Torrents

torrent name size files age seed leech

Sharing Widget


Download torrent
801.39 MB
seeders:141
leechers:25
Containment S01E12 720p HDTV X264-DIMENSION[rartv]



To share this torrent use the code below and insert it into comments, status messages, forum posts or your signature.

Torrent: Containment S01E12 720p HDTV X264-DIMENSION[rartv]

Trackers

tracker name
udp://tracker.openbittorrent.com:80/announce
udp://tracker.publicbt.com:80/announce
udp://tracker.coppersurfer.tk:6969/announce
udp://9.rarbg.me:2710/announce
udp://p4p.arenabg.com:1337/announce
http://tracker.trackerfix.com/announce
udp://9.rarbg.to:2710/announce
udp://tracker.opentrackr.org:1337/announce
µTorrent compatible trackers list

Locations

name
KickassTorrents
Torrent hash: A0A2226EE59790CF87C1F783D82B30C1555F12EA

All Comments

audio
9/10
video
9/10
please, leave only comments related to that torrent
Sign In

audio: 10video: 10
excellent. thx
It's too bad they aren't renewing this show. I enjoyed it. This is the last episode.
when u don't know what you're talking about ... 19-Jul-2016 01x13 Path To Paradise

audio: 8video: 8
Thank you uploader and seeders!
Thank you, Gracias, Merci, Grazie, Arigato, do jeh, Danke sehr, Khop Khun Mak Kha. ;)

User Opinions

Gotchinezcki11.25K, Maestral9870, queeroid6307, the-toerag5987, bradleyblazed4592, FERRYMAN-23124422, ajvega1067, yamazaky520, techtwin296, JooDrcrt11 ... And 44 more
Report a bug Open chat