12 Monkeys S02E12 720p HDTV x264-FLEET[rartv]

seeders: 273
leechers: 15
updated:
Added by z0n3212.58M in TV
Torrent verified. Downloaded 13,865 times.

  • View all 12 Monkeys episodes
  • Episode title: Blood Washed Away
  • Episode: S02E12
  • Air date: 11 July 2016
  • IMDb link: 3148266
  • TVmaze link: 12 Monkeys
  • Original run: 16 January 2015 — Present
  • Summary:

    Follows the journey of a time traveler from the post-apocalyptic future who appears in present day on a mission to locate and eradicate the source of a deadly plague that will eventually decimate the human race.

    Written by Thhaque414.94K
Available in versions: 1080p720p480pHDTVWEBRipx264x265
12 Monkeys S02E12 720p HDTV x264-FLEET[rartv] (Size: 729.32 MB)
  12.Monkeys.S02E12.720p.HDTV.x264-FLEET.mkv 729.32 MB
  12.Monkeys.S02E12.720p.HDTV.x264-FLEET.nfo 696 bytes
  rarbg.com.txt 34 bytes

Description


https://rarbg.to
12.Monkeys.S02E12.720p.HDTV.x264-FLEET[rartv]

image
Screens :

image
Mediainfo :

Video
ID : 1
Format : AVC
Format/Info : Advanced Video Codec
Format profile : [email protected]
Format settings, CABAC : Yes
Format settings, ReFrames : 5 frames
Codec ID : V_MPEG4/ISO/AVC
Duration : 42mn 34s
Bit rate : 1 963 Kbps
Width : 1 280 pixels
Height : 720 pixels
Display aspect ratio : 16:9
Frame rate mode : Constant
Frame rate : 23.976 (24000/1001) fps
Color space : YUV
Chroma subsampling : 4:2:0
Bit depth : 8 bits
Scan type : Progressive
Bits/(Pixel*Frame) : 0.089
Stream size : 598 MiB (82%)
Writing library : x264 core 148 r2705 3f5ed56
Encoding settings : cabac=1 / ref=5 / deblock=1:-2:-2 / analyse=0x3:0x113 / me=umh / subme=8 / psy=1 / psy_rd=1.05:0.00 / mixed_ref=1 / me_range=16 / chroma_me=1 / trellis=1 / 8x8dct=1 / cqm=0 / deadzone=21,11 / fast_pskip=1 / chroma_qp_offset=-2 / threads=22 / lookahead_threads=3 / sliced_threads=0 / nr=0 / decimate=1 / interlaced=0 / bluray_compat=0 / constrained_intra=0 / bframes=3 / b_pyramid=2 / b_adapt=2 / b_bias=0 / direct=3 / weightb=1 / open_gop=0 / weightp=2 / keyint=250 / keyint_min=23 / scenecut=40 / intra_refresh=0 / rc_lookahead=50 / rc=crf / mbtree=1 / crf=18.0 / qcomp=0.60 / qpmin=0 / qpmax=69 / qpstep=4 / ip_ratio=1.40 / aq=1:0.70
Language : English
Default : Yes
Forced : No

Audio
ID : 2
Format : AC-3
Format/Info : Audio Coding 3
Mode extension : CM (complete main)
Format settings, Endianness : Big
Codec ID : A_AC3
Duration : 42mn 34s
Bit rate mode : Constant
Bit rate : 384 Kbps
Channel(s) : 6 channels
Channel positions : Front: L C R, Side: L R, LFE
Sampling rate : 48.0 KHz
Frame rate : 31.250 fps (1536 spf)
Compression mode : Lossy
Stream size : 117 MiB (16%)
Language : English
Default : Yes
Forced : No

Text
ID : 3
Format : UTF-8
Codec ID : S_TEXT/UTF8
Codec ID/Info : UTF-8 Plain Text
Title : English
Language : English
Default : No
Forced : No

Related Torrents

torrent name size files age seed leech

Sharing Widget


Download torrent
729.32 MB
seeders:262
leechers:21
12 Monkeys S02E12 720p HDTV x264-FLEET[rartv]



To share this torrent use the code below and insert it into comments, status messages, forum posts or your signature.

Torrent: 12 Monkeys S02E12 720p HDTV x264-FLEET[rartv]

Trackers

tracker name
udp://tracker.openbittorrent.com:80/announce
udp://tracker.publicbt.com:80/announce
udp://tracker.coppersurfer.tk:6969/announce
udp://9.rarbg.me:2710/announce
udp://p4p.arenabg.com:1337/announce
http://tracker.trackerfix.com/announce
udp://9.rarbg.to:2710/announce
udp://tracker.opentrackr.org:1337/announce
µTorrent compatible trackers list

Locations

name
KickassTorrents
Torrent hash: C076E3D1335F0A20602A37E669D53438ADE91F34

All Comments

audio
9/10
video
9/10
please, leave only comments related to that torrent
Sign In

audio: 9video: 9
good, thanx
audio: 9video: 9
been a great show this one too bad its seasons end next time
audio: 10video: 8
Thanks Uploader AND Seeders! biggrin
audio: 10video: 10
nice
thank you :) cool
audio: 9video: 9
Ace! Cheers thumb_up
audio: 10video: 10
excellent. thx
audio: 9video: 9
Great quality.Thanks.
Show More All

User Opinions

didierlc12.96K, Gotchinezcki11.25K, mayhem6148078, pppawn6203, Zahrdahl5323, FERRYMAN-23124422, mandead1856, pebe1732, axellh567, arontroy411 ... And 104 more
Macd852273
Report a bug Open chat